Шнайдер против Бакса / Schneider vs. Bax (Алекс ван Вармердам / Alex van Warmerdam) [2015, Нидерланды, триллер, комедия, DVDRip] + Sub Rus + Original Dut


Статистика раздачи [Обновить пиров]
Размер:  1.37 GB   |    Зарегистрирован:  1 год   |    Скачан:  0 раз

Полного источника не было: Никогда

 
   
 
 
 

[Цитировать]

Шнайдер против Бакса / Schneider vs. Bax
Страна: Нидерланды
Жанр: триллер, комедия
Год выпуска: 2015
Продолжительность: 01:32:34
Перевод: Субтитры
Cубтитры: русские
Оригинальная аудиодорожка: нидерландский
Режиссер: Алекс ван Вармердам / Alex van Warmerdam
В ролях: Том Де Виспеларе, Алекс ван Вармердам, Мария Краакман, Гене Бервутс, Аннет Мальэрб, Пьер Бокма, Анри Гарсен, Лоэс Хаверкорт, Ева ван де Вийдевен
Описание: Шнайдер — наемный убийца-профессионал. Даже в день своего рождения он обязан подчиниться заказчику, некоему Мертенсу, и ликвидировать Рамона Бакса, писателя, живущего в домишке на берегу озера, окруженного болотами. Киллеру приходится спешить — ведь дома его ждет праздничный обед в кругу семьи. Однако в этот день все идет наперекосяк. Непредвиденные обстоятельства то и дело возникают на пути Шнайдера, отодвигая исход операции. Он нервничает и не догадывается, что его жертва на самом деле тоже профессиональный гангстер, у которого он, Шнайдер, на мушке…
Доп. информация: Изготовление субтитров основано на субтитрах с копии ограниченного проката и готовому найденному таймингу версии 25fps. Субтитры вполне подходят для версий, которые без проблем можно найти в сети. Приятного просмотра!
ссылка на kinopoisk.ru - http://www.kinopoisk.ru/film/819549/
ссылка на imdb.com - http://www.imdb.com/title/tt3430416/
Сэмпл: https://yadi.sk/d/wzYmJFlMkeNxZ
Качество видео: DVDRip
Формат видео: AVI
Видео: 720 x 304 (45:19), 25.000 fps, XviD ISO MPEG-4, ~1979 kbps avg, 0.362 bit/pixel
Аудио: MP3, 48000Hz 128 kb/s tot , Joint Stereo
Формат субтитров: softsub (SRT)
Доп. информация о субтитрах: изготовил kornickolay

MediaInfo

General
Complete name: D:\Downloads\Shnaider Protiv Baksa[rutracker.org]\Schneider vs. Bax [Alex van Warmerdam].avi
Format: AVI
Format/Info: Audio Video Interleave
File size: 1.37 GiB
Duration: 1h 32mn
Overall bit rate: 2 115 Kbps
Writing application: VirtualDubMod 1.5.4.1 (build 2178/release)
Writing library: VirtualDubMod build 2178/release
Video
ID: 0
Format: MPEG-4 Visual
Format profile: Advanced Simple@L5
Format settings, BVOP: 1
Format settings, QPel: No
Format settings, GMC: No warppoints
Format settings, Matrix: Custom
Codec ID: XVID
Codec ID/Hint: XviD
Duration: 1h 32mn
Bit rate: 1 979 Kbps
Width: 720 pixels
Height: 304 pixels
Display aspect ratio: 2.35:1
Frame rate: 25.000 fps
Color space: YUV
Chroma subsampling: 4:2:0
Bit depth: 8 bits
Scan type: Progressive
Compression mode: Lossy
Bits/(Pixel*Frame): 0.362
Stream size: 1.28 GiB (94%)
Writing library: XviD 64
Audio
ID: 1
Format: MPEG Audio
Format version: Version 1
Format profile: Layer 3
Mode: Joint stereo
Codec ID: 55
Codec ID/Hint: MP3
Duration: 1h 32mn
Bit rate mode: Constant
Bit rate: 128 Kbps
Channel(s): 2 channels
Sampling rate: 48.0 KHz
Compression mode: Lossy
Stream size: 84.7 MiB (6%)
Alignment: Aligned on interleaves
Interleave, duration: 80 ms (2.00 video frames)
Interleave, preload duration: 504 ms
Writing library: LAME3.98.2
Language: Nederlands

Пример субтитров

401
00:50:31,975 --> 00:50:33,374
Франциска?
402
00:50:36,895 --> 00:50:38,806
Это дедушка.
403
00:50:38,935 --> 00:50:40,812
Я за тобой.
404
00:51:04,815 --> 00:51:07,124
Тебе так идет эта грусть.
405
00:51:07,255 --> 00:51:08,370
Как ты сюда попал?
406
00:51:11,015 --> 00:51:12,733
Я за тобой.
407
00:51:13,615 --> 00:51:15,253
Меня твой отец прислал.
408
00:51:16,495 --> 00:51:18,053
Я никуда не пойду.
409
00:51:20,215 --> 00:51:22,331
Не бойся, я успокою тебя?
410
00:51:22,815 --> 00:51:24,487
Не надо меня успокаивать.
411
00:51:25,295 --> 00:51:27,604
Но у тебя же депрессия.
412
00:51:31,015 --> 00:51:33,165
Я просто поглажу твое колено.
413
00:51:33,655 --> 00:51:35,327
Что здесь плохого?
414
00:51:39,975 --> 00:51:40,964
Не надо.
415
00:51:59,135 --> 00:52:01,251
- Вы останетесь здесь.
- Ты чего наглотался?
416
00:52:01,375 --> 00:52:03,491
Ты с ума сошел?
417
00:52:03,615 --> 00:52:05,287
- Вы останетесь здесь.
- Боже!
418
00:52:05,415 --> 00:52:08,213
Ну ты и мудак! Ему надо в больницу.
419
00:53:49,175 --> 00:53:51,814
Где дед? Что случилось?
420
00:53:53,055 --> 00:53:55,444
Он что, приставал?

Скриншот c названием фильма

Скриншоты

[teatrix.ru].t10829.torrent 
Торрент: Зарегистрирован [ 2015-11-23 06:40 ] · 7DDE175799AB36F576AA4149E70A7707FF7A0AC7

Скачать .torrent

Скачать

28 KB

Статус: проверено
Скачан: 0 раз
Размер: 1.37 GB
terms.php



Быстрый ответ

Имя:

      
Для отправки сообщений необходимо включить JavaScript
Показать сообщения:    

Текущее время: 09-Дек 16:30

Часовой пояс: UTC + 3


Вы можете начинать темы
Вы можете отвечать на сообщения
Вы не можете редактировать свои сообщения
Вы не можете удалять свои сообщения
Вы не можете голосовать в опросах
Вы не можете прикреплять файлы к сообщениям
Вы можете скачивать файлы