(Orchestral) Anton Bruckner - Symphonie Nr.8 (Konzerthausorchester Berlin - Mario Venzago) - 2014, FLAC (image+.cue) lossless


 

[Цитировать]

Anton Bruckner
Symphonie 8
Konzerthausorchester Berlin
Mario Venzago-
-
- Жанр: Orchestral
Страна-производитель диска: Germany
Год издания диска: 2014
Издатель (лейбл): CPO
Дата записи: 29.10.2011
Аудиокодек: FLAC
Тип рипа: image+.cue
Битрейт аудио: lossless
Продолжительность: 75'25''
Источник: собственный рип
Наличие сканов в содержимом раздачи: да
Треклист:
A.Bruckner - Symphonie Nr.8:
[01] I. Allegro moderato
[02] II. Scherzo: Allegro moderato
[03] III. Adagio: Feierlich langsam; doch nicht schleppend
[04] IV. Finale: Feierlich, nicht schnell
Исполнители:
Konzerthausorchester Berlin - Mario Venzago

Лог создания рипа

Exact Audio Copy V1.0 beta 4 from 7. December 2014
EAC extraction logfile from 8. August 2015, 19:06
Konzerthausorchester Berlin - Mario Venzago / Bruckner 8
Used drive : PHILIPS PCRW804 Adapter: 1 ID: 1
Read mode : SecureUtilize accurate stream : YesDefeat audio cache : YesMake use of C2 pointers : No
Read offset correction : -436Overread into Lead-In and Lead-Out : NoFill up missing offset samples with silence : YesDelete leading and trailing silent blocks : NoNull samples used in CRC calculations : YesUsed interface : Native Win32 interface for Win NT & 2000
Used output format : User Defined EncoderSelected bitrate : 1024 kBit/sQuality : HighAdd ID3 tag : NoCommand line compressor : C:\Program Files (x86)\FLAC\flac.exeAdditional command line options : -T "COMMENT=rip by el coronel" -8 -V %source%
TOC of the extracted CD
Track | Start | Length | Start sector | End sector --------------------------------------------------------- 1 | 0:00.00 | 14:46.13 | 0 | 66462 2 | 14:46.13 | 14:25.09 | 66463 | 131346 3 | 29:11.22 | 24:46.22 | 131347 | 242818 4 | 53:57.44 | 21:27.18 | 242819 | 339361
Range status and errors
Selected range
Filename F:\Music\Bruckner 0-9 Venzago\Bruckner 8\CD.wav
Peak level 95.8 % Extraction speed 2.2 X Range quality 99.9 % Test CRC A855DE56 Copy CRC A855DE56 Copy OK
No errors occurred
AccurateRip summary
Track 1 not present in databaseTrack 2 not present in databaseTrack 3 not present in databaseTrack 4 not present in database
None of the tracks are present in the AccurateRip database
End of status report
---- CUETools DB Plugin V2.1.4
[CTDB TOCID: VMidIRWOxHrem6iOQQjDdkX6IK0-] disk not present in databaseSubmit result: VMidIRWOxHrem6iOQQjDdkX6IK0- has been uploaded
==== Log checksum 25F2EA9F5170C574F95DE549EF260B01BC29E182959339C8872B0D05677AB34F ====

Содержание индексной карты (.CUE)

REM GENRE ClassicalREM DATE 2011REM DISCID 3B11AC04REM COMMENT "ExactAudioCopy v1.0b4"PERFORMER "Konzerthausorchester Berlin - Mario Venzago"TITLE "Bruckner 8"FILE "CD.flac" WAVE TRACK 01 AUDIO TITLE "I. Allegro moderato" PERFORMER "Konzerthausorchester Berlin - Mario Venzago" ISRC DEB201169101 INDEX 01 00:00:00 TRACK 02 AUDIO TITLE "II. Scherzo: Allegro moderato" PERFORMER "Konzerthausorchester Berlin - Mario Venzago" ISRC DEB201169101 INDEX 01 14:46:13 TRACK 03 AUDIO TITLE "III. Adagio: Feierlich langsam; doch nicht schleppend" PERFORMER "Konzerthausorchester Berlin - Mario Venzago" ISRC DEB201169102 INDEX 01 29:11:22 TRACK 04 AUDIO TITLE "IV. Finale: Feierlich, nicht schnell" PERFORMER "Konzerthausorchester Berlin - Mario Venzago" ISRC DEB201169103 INDEX 01 53:57:44
-Доп. информация: Восьмая симфония на мой взгляд получилась наиболее глубокой из всего цикла. Такого свежего, лёгкого и вдумчивого исполнения этого титанического сочинения очень недоставало. Прибавьте к этому красивейшую и технически безупречную игру Оркестра Берлинского Концертхауза (бывший Берлинский Симфонический Оркестр) и вы получите совершенно выдающуюся интерпретацию, которую хочется переслушивать и переслушивать.
Несмотря на всё это, запись получила звание "худшей Восьмой симфонии Брукнера всех времен" по версии известного критика Дэвида Гурвица. Ну, тем интереснее



Показать сообщения:    

Текущее время: 08-Дек 17:24

Часовой пояс: UTC + 3


Вы не можете начинать темы
Вы не можете отвечать на сообщения
Вы не можете редактировать свои сообщения
Вы не можете удалять свои сообщения
Вы не можете голосовать в опросах
Вы не можете прикреплять файлы к сообщениям
Вы не можете скачивать файлы