(Opera baroque) Lully - Amadis [3CD's] (Cyril Auvity, Ingrid Perruche / Choeur de Chambre de Namur, Les Talens Lyriques, Christophe Rousset) - 2014, FLAC (tracks+.cue) lossless


 

[Цитировать]

Lully - Amadis

Жанр: Baroque opera
Страна-производитель диска: Made in France?
Год издания диска: 2014
Издатель (лейбл): Aparte
Номер по каталогу: AP094
Дата записи: 2013
Аудиокодек: FLAC
Тип рипа: tracks+.cue
Битрейт аудио: lossless
Продолжительность: 2 часа 43 минуты
Источник: релизер
сайт-источник/ник/другое: Cleobule and Meeting in Music blogspot
Наличие сканов в содержимом раздачи: да, только обложка
Треклист:

скрытый текст

Disc 1

скрытый текст

1. Ouverture
2. Ah ! j'entends un bruit qui nous presse (ch?ur, urgande et alquif) - Boisseau Pierrick, Tauran Bénédicte
3. Premier air
4. Second air "les plaisirs nous suivront désormais" (une des suivantes d'urgande) - Weynants Caroline
5. Lorsqu'amadis périt, une douleur profonde (ch?ur, alquif, urgande) - Tauran Bénédicte, Boisseau Pierrick
6. Rondeau "suivions l'amour, c'est lui qui nous mène" (ch?ur, une des suivantes d'urgande) - Weynants Caroline
7. Volez, tendres amours, amadis va revivre (ch?ur, urgande et alquif) - Boisseau Pierrick, Tauran Bénédicte
8. Ouverture (reprise)
9. Acte I, scène 1, je reviens dans ces lieux pour y voir ce que j'aime (amadis, florestan) - Arnould Benoît, Auvity Cyril
10. Acte I, scène 2, florestan ! (florestan, corisande) - Bennani Hasnaa, Arnould Benoît
11. Acte I, scène 3, je revois florestan, je le revois fidèle (oriane, florestan, corisande) - Bennani Hasnaa, Arnould Benoît, Van Wanroij Judith
12. Acte I, scène 4, marche pour le combat de la barrière
13. Acte I, premier air des combattants
14. Acte I, belle princesse, que vos charmes (troupe de combattants)
15. Acte I, marche pour le combat de la barrière (reprise)
Disc 2

скрытый текст

1. Acte II, scène 1, prélude "amour, que veux-tu de moi ?" (arcabonne) - Perruche Ingrid
2. Acte II, scène 2, ma s?ur, qui peut causer votre sombre tritesse ? (arcabonne, arcalaüs) - Crossley-Mercer Edwin, Perruche Ingrid
3. Acte II, scène 3, dans un piège fatal son mauvais sort l'amène. (arcalaüs) - Crossley-Mercer Edwin
4. Acte II, scène 4, prélude "bois épais, redouble ton ombre" (amadis) - Auvity Cyril
5. Acte II, scène 5, ritournelle "ô fortune cruelle !" (amadis, corisande) - Bennani Hasnaa, Auvity Cyril
6. Acte II, scène 6, arrête, audacieux (amadis, corisande, arcalaüs) - Crossley-Mercer Edwin, Bennani Hasnaa, Auvity Cyril
7. Acte II, scène 7, esprits infernaux, il est temps (amadis, arcalaüs) - Crossley-Mercer Edwin, Auvity Cyril
8. Acte II, scène 8, air pour les démons et les monstres
9. Acte II, scène 9, symphonie des enchantements "non, non, pour être invincible" (troupe de démons enchanteurs)
10. Acte II, trio "aimez, soupirez, c?urs fidèles" (deux démons sous la forme de bergers)
11. Acte II, trio "vous ne devez plus attendre" (deux démons sous la forme de nymphes et la troupe de démons enchanteurs)
12. Acte II, est-ce vous oriane ! ô ciel ! est-il possible ? (amadis) - Auvity Cyril
13. Acte II, non, non, pour être invincible (troupe de démons enchanteurs)
14. Acte II, second air (reprise)
15. Acte III, scène 1, prélude "ciel ! finissez nos peines" (florestan, corisande, ch?ur de captives et de captifs enfermés, ch?ur de geôliers) - Bennani Hasnaa, Arnould Benoît
16. Acte III, scène 2, prélude "il est temps de finir votre plainte importune" (troupe de captives et captifs, troupe des geôliers et arcabonne)
17. Acte III, florestan ! (les mêmes, corisande) - Bennani Hasnaa
18. Acte III, scène 3, ah ! tu me trahis, malheureuse (arcabonne, l'ombre d'ardan canile) - Boisseau Pierrick, Perruche Ingrid
19. Acte III, scène 4, prélude "non, rien n'arrêtera la fureur qui m'anime" (amadis, arcabonne) - Perruche Ingrid, Auvity Cyril
20. Acte III, vivez, quittez vos fers, ne craignez plus ma haine (amadis, arcabonne) - Perruche Ingrid, Auvity Cyril
21. Acte III, ritournelle
22. Acte III, scène 5, prélude "sortons d'esclavage" (corisande, florestan, troupe de captives et captifs) - Arnould Benoît, Bennani Hasnaa
23. Acte III, premier air
24. Acte III, second air "sortons d'esclavage" (corisande, florestan, troupe de captives et captifs) - Arnould Benoît, Bennani Hasnaa
25. Acte III, premier air (reprise)
Disc 3

скрытый текст

1. Acte IV, scène 1, par mes enchantements oriane est captive (arcabonne, arcalaüs) - Crossley-Mercer Edwin, Perruche Ingrid
2. Acte IV, scène 2, a qui pourrai-je avoir recours ? (oriane) - Van Wanroij Judith
3. Acte IV, scène 3, je vous entends, cessez de feindre (oriane, arcalüs) - Crossley-Mercer Edwin, Van Wanroij Judith
4. Acte IV, scène 4, que vois-je ! ô spectacle effroyable ? (oriane) - Van Wanroij Judith
5. Acte IV, il m'appelle, je le vais suivre (oriane) - Van Wanroij Judith
6. Acte IV, scène 5, quel plaisir de voir (arcabonne, arcalaüs) - Crossley-Mercer Edwin, Perruche Ingrid
7. Acte IV, scène 6, prélude "je soumets à mes lois l'enfer, la terre et l'onde" (urgande) - Tauran Bénédicte
8. Acte IV, prélude "tout mon effort est inutile" (deux suivantes d'urgande, arcabonne et arcalüs) - Perruche Ingrid, Thomas Virginie, Weynants Caroline, Crossley-Mercer Edwin
9. Acte IV, menuet pour les suivantes "c?urs, accablés de rigueurs inhumaines" (deux suivantes d'urgande), menuet pour les suivantes (reprise) - Thomas Virginie, Weynants Caroline
10. Acte IV, scène 7, prélude "démons, soumis à nos lois" (arcabonne et arcalaüs) - Crossley-Mercer Edwin, Perruche Ingrid
11. Acte IV, second air acte III (reprise)
12. Acte V, scène 1, prélude "apollidon, par un pouvoir magique" (amadis, urgande) - Tauran Bénédicte, Auvity Cyril
13. Acte V, scène 2, fermez-vous pour jamais, mes yeux, mes tristes yeux (amadis, oriane) - Van Wanroij Judith, Auvity Cyril
14. Acte V, scène 3, enfin, vos c?urs sont réunis, (amadis, oriane, urgande) - Tauran Bénédicte, Van Wanroij Judith, Auvity Cyril
15. Acte V, scène 4, symphonie "il est temps de vous arrêter" (florestan, corisande, amadis, oriande, urgande) - Tauran Bénédicte, Van Wanroij Judith, Auvity Cyril, Bennani Hasnaa, Arnould Benoît
16. Acte V, scène 5, prélude "fidèles c?urs, votre constance" (une héroïne) - Weynants Caroline
17. Acte V, chaconne
18. Acte V, chantons tous, en ce jour (grand ch?ur)
Исполнители:

скрытый текст

Jean-Baptiste Lully (1632-1687)
Amadis
Tragédie lyrique en un prologue et cinq actes créé en 1684
Livret de Philippe Quinault (1635-1688)
Les Talens Lyriques
Clavecin et direction : Christophe Rousset
Choeur de Chambre de Namur
Solistes – Soloists
Amadis : Cyril Auvity
Oriane : Judith van Wanroij
Arcabonne : Ingrid Perruche
Arcalaüs : Edwin Crossley-Mercer
Florestan : Benoît Arnould
Urgande : Bénédicte Tauran
Corisande : Hasnaa Bennani
Alquif, Ardan Canile, un geôlier, un berger : Pierrick Boisseau
Un captif, un berger, un héros : Reinoud Van Mechelen
Une suivante d’Urgande, une héroïne, une captive, une bergère : Caroline Weynants
Une bergère, une suivante d’Urgande : Virginie Thomas
Orchestre
Violons I : Gilone Gaubert-Jacques, Myriam Mahnane, Jean-Marc Haddad
Violons II : Yuki Koike, Bérengère Maillard, Josépha Jégard
Altos Hautes-contre : Lucia Peralta, Christophe Robert
Tailles : Delphine Grimbert, Sarah Brayer
Quintes : Marta Paramo, Céline Cavagnac
Basses de violon : Mathurin Matharel, Jean-Marie Quint, Marjolaine Cambon, Hilary Metzger, Camilo Peralta
Flûtes traversières : Jocelyn Daubigney, Stefanie Troffaes
Flûtes à bec : Stefanie Troffaes, Vincent Blanchard
Hautbois : Vincent Blanchard, Laura Duthuille
Basson : Catherine Pépin
Trompettes : René Maze, Ricard Casañ Dolz
Timbales : Marie-Ange Petit
Continuo, Violoncelle : Emmanuel Jacques
Viole de gambe : François Joubert-Caillet
Luth : Lynda Sayce
Clavecin et orgue : Stéphane Fuget
Continuo
Basse de violon: Mathurin Matharel
Viole de gambe: Isabelle Saint-Yves
Luth: Lynda Sayce
Clavecin et orgue: Violaine Cochard

Лог создания рипа

СD1

скрытый текст

X Lossless Decoder version 20141129a (148.2)
XLD extraction logfile from 2015-11-21 10:40:25 +0100
Christophe Rousset: Les Talens lyriques / Lully: Amadis
Used drive : MATSHITA DVD-R UJ-898 (revision HC10)
Media type : Pressed CD
Ripper mode : XLD Secure Ripper
Disable audio cache : OK for the drive with a cache less than 1375KiB
Make use of C2 pointers : NO
Read offset correction : 102
Max retry count : 20
Gap status : Analyzed, Appended (except HTOA)
TOC of the extracted CD
Track | Start | Length | Start sector | End sector
---------------------------------------------------------
1 | 00:00:00 | 02:07:00 | 0 | 9524
2 | 02:07:00 | 02:23:19 | 9525 | 20268
3 | 04:30:19 | 01:28:27 | 20269 | 26895
4 | 05:58:46 | 02:25:29 | 26896 | 37799
5 | 08:24:00 | 04:03:62 | 37800 | 56086
6 | 12:27:62 | 03:06:53 | 56087 | 70089
7 | 15:34:40 | 00:46:59 | 70090 | 73598
8 | 16:21:24 | 02:06:73 | 73599 | 83121
9 | 18:28:22 | 06:59:41 | 83122 | 114587
10 | 25:27:63 | 05:08:35 | 114588 | 137722
11 | 30:36:23 | 06:28:30 | 137723 | 166852
12 | 37:04:53 | 01:14:20 | 166853 | 172422
13 | 38:18:73 | 00:55:41 | 172423 | 176588
14 | 39:14:39 | 02:07:57 | 176589 | 186170
15 | 41:22:21 | 01:22:36 | 186171 | 192356
AccurateRip Summary (DiscID: 0017417c-010f6ab7-c20a040f)
Track 01 : OK (v2, confidence 3/3)
Track 02 : OK (v2, confidence 3/3)
Track 03 : OK (v2, confidence 3/3)
Track 04 : OK (v2, confidence 3/3)
Track 05 : OK (v2, confidence 3/3)
Track 06 : OK (v2, confidence 3/3)
Track 07 : OK (v2, confidence 3/3)
Track 08 : OK (v2, confidence 3/3)
Track 09 : OK (v2, confidence 3/3)
Track 10 : OK (v2, confidence 3/3)
Track 11 : OK (v2, confidence 3/3)
Track 12 : OK (v2, confidence 3/3)
Track 13 : OK (v2, confidence 3/3)
Track 14 : OK (v2, confidence 3/3)
Track 15 : OK (v2, confidence 3/3)
->All tracks accurately ripped.
All Tracks
Statistics
Read error : 0
Jitter error (maybe fixed) : 0
Retry sector count : 0
Damaged sector count : 0
Track 01
Filename : /Users/loicchahine/Downloads/_M/Lully - Amadis Rousset/1/01 Christophe Rousset, Les Talens Lyriques And Chœur De Chambre De Namur - Prologue - Ouverture.flac
Pre-gap length : 00:02:00
CRC32 hash : DFB27C55
CRC32 hash (skip zero) : BF46038B
AccurateRip v1 signature : A6EB59D3
AccurateRip v2 signature : 11EE4350
->Accurately ripped (v2, confidence 3/3)
Statistics
Read error : 0
Jitter error (maybe fixed) : 0
Retry sector count : 0
Damaged sector count : 0
Track 02
Filename : /Users/loicchahine/Downloads/_M/Lully - Amadis Rousset/1/02 Christophe Rousset, Les Talens Lyriques, Chœur de Chambre de Namur, Bénédicte Tauran and Pierrick Boisseau - Ah ! J'entends un bruit qui nous presse (Chœur, Urgande et Alquif).flac
CRC32 hash : A930E5CB
CRC32 hash (skip zero) : F1EFD231
AccurateRip v1 signature : C1B32CB2
AccurateRip v2 signature : 493464F8
->Accurately ripped (v2, confidence 3/3)
Statistics
Read error : 0
Jitter error (maybe fixed) : 0
Retry sector count : 0
Damaged sector count : 0
Track 03
Filename : /Users/loicchahine/Downloads/_M/Lully - Amadis Rousset/1/03 Christophe Rousset, Les Talens Lyriques And Chœur De Chambre De Namur - Premier air.flac
CRC32 hash : B8C85886
CRC32 hash (skip zero) : 5AEC6E1B
AccurateRip v1 signature : 709D6EA9
AccurateRip v2 signature : 5CA4ADD6
->Accurately ripped (v2, confidence 3/3)
Statistics
Read error : 0
Jitter error (maybe fixed) : 0
Retry sector count : 0
Damaged sector count : 0
Track 04
Filename : /Users/loicchahine/Downloads/_M/Lully - Amadis Rousset/1/04 Christophe Rousset, Les Talens Lyriques, Chœur de Chambre de Namur and Caroline Weynants - Second air "Les plaisirs nous suivront désormais" (une des suivantes d'Urgande).flac
CRC32 hash : 3781BEBB
CRC32 hash (skip zero) : 6386C4C3
AccurateRip v1 signature : A7DB9495
AccurateRip v2 signature : 4874A673
->Accurately ripped (v2, confidence 3/3)
Statistics
Read error : 0
Jitter error (maybe fixed) : 0
Retry sector count : 0
Damaged sector count : 0
Track 05
Filename : /Users/loicchahine/Downloads/_M/Lully - Amadis Rousset/1/05 Christophe Rousset, Les Talens Lyriques, Chœur de Chambre de Namur, Pierrick Boisseau and Bénédicte Tauran - Lorsqu'Amadis périt, une douleur profonde (Chœur, Alquif, Urgande).flac
CRC32 hash : 92FF59E1
CRC32 hash (skip zero) : D1D2A375
AccurateRip v1 signature : 5CF0883D
AccurateRip v2 signature : CF7DD23B
->Accurately ripped (v2, confidence 3/3)
Statistics
Read error : 0
Jitter error (maybe fixed) : 0
Retry sector count : 0
Damaged sector count : 0
Track 06
Filename : /Users/loicchahine/Downloads/_M/Lully - Amadis Rousset/1/06 Christophe Rousset, Les Talens Lyriques, Chœur de Chambre de Namur and Caroline Weynants - Rondeau "Suivions l'amour, c'est lui qui nous mène" (Chœur, une des suivantes d'Urgande).flac
CRC32 hash : A8B6D248
CRC32 hash (skip zero) : 7CCC9C83
AccurateRip v1 signature : 38308D2A
AccurateRip v2 signature : AA37303E
->Accurately ripped (v2, confidence 3/3)
Statistics
Read error : 0
Jitter error (maybe fixed) : 0
Retry sector count : 0
Damaged sector count : 0
Track 07
Filename : /Users/loicchahine/Downloads/_M/Lully - Amadis Rousset/1/07 Christophe Rousset, Les Talens Lyriques, Chœur de Chambre de Namur, Bénédicte Tauran and Pierrick Boisseau - Volez, tendres amours, Amadis va revivre (Chœur, Urgande et Alquif).flac
CRC32 hash : 054026C9
CRC32 hash (skip zero) : E6336CB6
AccurateRip v1 signature : 9BC1971E
AccurateRip v2 signature : E1E07C12
->Accurately ripped (v2, confidence 3/3)
Statistics
Read error : 0
Jitter error (maybe fixed) : 0
Retry sector count : 0
Damaged sector count : 0
Track 08
Filename : /Users/loicchahine/Downloads/_M/Lully - Amadis Rousset/1/08 Christophe Rousset, Les Talens Lyriques And Chœur De Chambre De Namur - Ouverture (reprise).flac
CRC32 hash : 494D547E
CRC32 hash (skip zero) : 59DB4C62
AccurateRip v1 signature : E695D94C
AccurateRip v2 signature : 5016A4E8
->Accurately ripped (v2, confidence 3/3)
Statistics
Read error : 0
Jitter error (maybe fixed) : 0
Retry sector count : 0
Damaged sector count : 0
Track 09
Filename : /Users/loicchahine/Downloads/_M/Lully - Amadis Rousset/1/09 Christophe Rousset, Les Talens Lyriques, Chœur de Chambre de Namur, Cyril Auvity and Benoit Arnould - Acte I, Scène 1, Je reviens dans ces lieux pour y voir ce que j'aime (Amadis, Florestan).flac
CRC32 hash : 69872F92
CRC32 hash (skip zero) : CD9DFD02
AccurateRip v1 signature : C43B7E16
AccurateRip v2 signature : 9673F6B7
->Accurately ripped (v2, confidence 3/3)
Statistics
Read error : 0
Jitter error (maybe fixed) : 0
Retry sector count : 0
Damaged sector count : 0
Track 10
Filename : /Users/loicchahine/Downloads/_M/Lully - Amadis Rousset/1/10 Christophe Rousset, Les Talens Lyriques, Chœur de Chambre de Namur, Benoit Arnould and Hasnaa Bennani - Acte I, Scène 2, Florestan ! (Florestan, Corisande).flac
CRC32 hash : 22E39E59
CRC32 hash (skip zero) : E5B92226
AccurateRip v1 signature : D13C0E05
AccurateRip v2 signature : 148926EB
->Accurately ripped (v2, confidence 3/3)
Statistics
Read error : 0
Jitter error (maybe fixed) : 0
Retry sector count : 0
Damaged sector count : 0
Track 11
Filename : /Users/loicchahine/Downloads/_M/Lully - Amadis Rousset/1/11 Christophe Rousset, Les Talens Lyriques, Chœur de Chambre de Namur, Judith van Wanroij, Benoit Arnould and Hasnaa Bennani - Acte I, Scène 3, Je revois Florestan, je le revois fidèle (Oriane, Florestan, Corisande).flac
CRC32 hash : 9E256012
CRC32 hash (skip zero) : 591E743A
AccurateRip v1 signature : 5CC5C3EF
AccurateRip v2 signature : 2FA3D01D
->Accurately ripped (v2, confidence 3/3)
Statistics
Read error : 0
Jitter error (maybe fixed) : 0
Retry sector count : 0
Damaged sector count : 0
Track 12
Filename : /Users/loicchahine/Downloads/_M/Lully - Amadis Rousset/1/12 Christophe Rousset, Les Talens Lyriques And Chœur De Chambre De Namur - Acte I, Scène 4, Marche pour le combat de la barrière.flac
CRC32 hash : 8B29DCC5
CRC32 hash (skip zero) : C641C94C
AccurateRip v1 signature : 40B5B089
AccurateRip v2 signature : B7AEBBF1
->Accurately ripped (v2, confidence 3/3)
Statistics
Read error : 0
Jitter error (maybe fixed) : 0
Retry sector count : 0
Damaged sector count : 0
Track 13
Filename : /Users/loicchahine/Downloads/_M/Lully - Amadis Rousset/1/13 Christophe Rousset, Les Talens Lyriques And Chœur De Chambre De Namur - Acte I, Premier air des combattants.flac
CRC32 hash : F5BC31AC
CRC32 hash (skip zero) : 84B33B9C
AccurateRip v1 signature : 98BCE130
AccurateRip v2 signature : 70FC8142
->Accurately ripped (v2, confidence 3/3)
Statistics
Read error : 0
Jitter error (maybe fixed) : 0
Retry sector count : 0
Damaged sector count : 0
Track 14
Filename : /Users/loicchahine/Downloads/_M/Lully - Amadis Rousset/1/14 Christophe Rousset, Les Talens Lyriques And Chœur De Chambre De Namur - Acte I, Belle princesse, que vos charmes (Troupe de combattants).flac
CRC32 hash : 77372550
CRC32 hash (skip zero) : 07C1FB2E
AccurateRip v1 signature : AE014E2C
AccurateRip v2 signature : A6619D85
->Accurately ripped (v2, confidence 3/3)
Statistics
Read error : 0
Jitter error (maybe fixed) : 0
Retry sector count : 0
Damaged sector count : 0
Track 15
Filename : /Users/loicchahine/Downloads/_M/Lully - Amadis Rousset/1/15 Christophe Rousset, Les Talens Lyriques And Chœur De Chambre De Namur - Acte I, Marche pour le combat de la barrière (reprise).flac
CRC32 hash : C49D86D3
CRC32 hash (skip zero) : B007A3FB
AccurateRip v1 signature : 74B4580E
AccurateRip v2 signature : 660E8460
->Accurately ripped (v2, confidence 3/3)
Statistics
Read error : 0
Jitter error (maybe fixed) : 0
Retry sector count : 0
Damaged sector count : 0
No errors occurred
End of status report
CD2

скрытый текст

X Lossless Decoder version 20141129a (148.2)
XLD extraction logfile from 2015-11-21 10:17:45 +0100
Christophe Rousset: Les Talens lyriques / Lully: Amadis
Used drive : MATSHITA DVD-R UJ-898 (revision HC10)
Media type : Pressed CD
Ripper mode : XLD Secure Ripper
Disable audio cache : OK for the drive with a cache less than 1375KiB
Make use of C2 pointers : NO
Read offset correction : 102
Max retry count : 20
Gap status : Analyzed, Appended (except HTOA)
TOC of the extracted CD
Track | Start | Length | Start sector | End sector
---------------------------------------------------------
1 | 00:00:00 | 01:52:20 | 0 | 8419
2 | 01:52:20 | 06:19:71 | 8420 | 36915
3 | 08:12:16 | 02:42:51 | 36916 | 49116
4 | 10:54:67 | 02:14:14 | 49117 | 59180
5 | 13:09:06 | 03:36:14 | 59181 | 75394
6 | 16:45:20 | 01:11:23 | 75395 | 80742
7 | 17:56:43 | 00:29:54 | 80743 | 82971
8 | 18:26:22 | 01:20:60 | 82972 | 89031
9 | 19:47:07 | 04:26:12 | 89032 | 108993
10 | 24:13:19 | 01:17:48 | 108994 | 114816
11 | 25:30:67 | 03:37:48 | 114817 | 131139
12 | 29:08:40 | 01:20:38 | 131140 | 137177
13 | 30:29:03 | 02:01:19 | 137178 | 146271
14 | 32:30:22 | 01:39:43 | 146272 | 153739
15 | 34:09:65 | 05:36:37 | 153740 | 178976
16 | 39:46:27 | 03:30:42 | 178977 | 194768
17 | 43:16:69 | 05:39:00 | 194769 | 220193
18 | 48:55:69 | 02:44:48 | 220194 | 232541
19 | 51:40:42 | 01:40:13 | 232542 | 240054
20 | 53:20:55 | 01:28:17 | 240055 | 246671
21 | 54:48:72 | 01:05:07 | 246672 | 251553
22 | 55:54:04 | 01:25:65 | 251554 | 257993
23 | 57:19:69 | 02:28:68 | 257994 | 269161
24 | 59:48:62 | 02:41:11 | 269162 | 281247
25 | 62:29:73 | 02:26:54 | 281248 | 292251
AccurateRip Summary (DiscID: 003c1c08-04301c3f-590f3819)
Track 01 : OK (v2, confidence 3/3)
Track 02 : OK (v2, confidence 3/3)
Track 03 : OK (v2, confidence 3/3)
Track 04 : OK (v2, confidence 3/3)
Track 05 : OK (v2, confidence 3/3)
Track 06 : OK (v2, confidence 3/3)
Track 07 : OK (v2, confidence 3/3)
Track 08 : OK (v2, confidence 3/3)
Track 09 : OK (v2, confidence 3/3)
Track 10 : OK (v2, confidence 3/3)
Track 11 : OK (v2, confidence 3/3)
Track 12 : OK (v2, confidence 3/3)
Track 13 : OK (v2, confidence 3/3)
Track 14 : OK (v2, confidence 3/3)
Track 15 : OK (v2, confidence 3/3)
Track 16 : OK (v2, confidence 3/3)
Track 17 : OK (v2, confidence 3/3)
Track 18 : OK (v2, confidence 3/3)
Track 19 : OK (v2, confidence 3/3)
Track 20 : OK (v2, confidence 3/3)
Track 21 : OK (v2, confidence 3/3)
Track 22 : OK (v2, confidence 3/3)
Track 23 : OK (v2, confidence 3/3)
Track 24 : OK (v2, confidence 3/3)
Track 25 : OK (v2, confidence 3/3)
->All tracks accurately ripped.
All Tracks
Statistics
Read error : 0
Jitter error (maybe fixed) : 0
Retry sector count : 0
Damaged sector count : 0
Track 01
Filename : /Users/loicchahine/Downloads/_M/Lully - Amadis Rousset/2/01 Christophe Rousset, Les Talens Lyriques, Chœur de Chambre de Namur and Ingrid Perruche - Acte II, Scène 1, Prélude "Amour, que veux-tu de moi ?" (Arcabonne).flac
Pre-gap length : 00:02:00
CRC32 hash : 34CFBAD3
CRC32 hash (skip zero) : A7713723
AccurateRip v1 signature : AB7BC1B8
AccurateRip v2 signature : 623FFF5E
->Accurately ripped (v2, confidence 3/3)
Statistics
Read error : 0
Jitter error (maybe fixed) : 0
Retry sector count : 0
Damaged sector count : 0
Track 02
Filename : /Users/loicchahine/Downloads/_M/Lully - Amadis Rousset/2/02 Christophe Rousset, Les Talens Lyriques, Chœur de Chambre de Namur, Ingrid Perruche and Edwin Crossley-Mercer - Acte II, Scène 2, Ma sœur, qui peut causer votre sombre tritesse ? (Arcabonne, Arcalaüs).flac
CRC32 hash : C164B797
CRC32 hash (skip zero) : BFF75865
AccurateRip v1 signature : 882E6E82
AccurateRip v2 signature : 384DB4BF
->Accurately ripped (v2, confidence 3/3)
Statistics
Read error : 0
Jitter error (maybe fixed) : 0
Retry sector count : 0
Damaged sector count : 0
Track 03
Filename : /Users/loicchahine/Downloads/_M/Lully - Amadis Rousset/2/03 Christophe Rousset, Les Talens Lyriques, Chœur de Chambre de Namur and Edwin Crossley-Mercer - Acte II, Scène 3, Dans un piège fatal son mauvais sort l'amène. (Arcalaüs).flac
CRC32 hash : 4C00613E
CRC32 hash (skip zero) : 70DF70F2
AccurateRip v1 signature : 8EC8A227
AccurateRip v2 signature : 2D245C99
->Accurately ripped (v2, confidence 3/3)
Statistics
Read error : 0
Jitter error (maybe fixed) : 0
Retry sector count : 0
Damaged sector count : 0
Track 04
Filename : /Users/loicchahine/Downloads/_M/Lully - Amadis Rousset/2/04 Christophe Rousset, Les Talens Lyriques, Chœur De Chambre De Namur And Cyril Auvity - Acte II, Scène 4, Prélude "Bois épais, redouble ton ombre" (Amadis).flac
CRC32 hash : 7688DECC
CRC32 hash (skip zero) : 3450ABDC
AccurateRip v1 signature : F12D31E5
AccurateRip v2 signature : 42418986
->Accurately ripped (v2, confidence 3/3)
Statistics
Read error : 0
Jitter error (maybe fixed) : 0
Retry sector count : 0
Damaged sector count : 0
Track 05
Filename : /Users/loicchahine/Downloads/_M/Lully - Amadis Rousset/2/05 Christophe Rousset, Les Talens Lyriques, Chœur de Chambre de Namur, Cyril Auvity and Hasnaa Bennani - Acte II, Scène 5, Ritournelle "Ô fortune cruelle !" (Amadis, Corisande).flac
CRC32 hash : 41C5337E
CRC32 hash (skip zero) : DD130B88
AccurateRip v1 signature : 0DBA4B46
AccurateRip v2 signature : 93C49BCB
->Accurately ripped (v2, confidence 3/3)
Statistics
Read error : 0
Jitter error (maybe fixed) : 0
Retry sector count : 0
Damaged sector count : 0
Track 06
Filename : /Users/loicchahine/Downloads/_M/Lully - Amadis Rousset/2/06 Christophe Rousset, Les Talens Lyriques, Chœur de Chambre de Namur, Cyril Auvity, Hasnaa Bennani and Edwin Crossley-Mercer - Acte II, Scène 6, Arrête, audacieux (Amadis, Corisande, Arcalaüs).flac
CRC32 hash : 2E0981B6
CRC32 hash (skip zero) : 3A683F05
AccurateRip v1 signature : 90755E5E
AccurateRip v2 signature : 2400ED92
->Accurately ripped (v2, confidence 3/3)
Statistics
Read error : 0
Jitter error (maybe fixed) : 0
Retry sector count : 0
Damaged sector count : 0
Track 07
Filename : /Users/loicchahine/Downloads/_M/Lully - Amadis Rousset/2/07 Christophe Rousset, Les Talens Lyriques, Edwin Crossley-Mercer, Chœur De Chambre De Namur And Cyril Auvity - Acte II, Scène 7, Esprits infernaux, il est temps (Amadis, Arcalaüs).flac
CRC32 hash : DB4AE999
CRC32 hash (skip zero) : F89F7937
AccurateRip v1 signature : F754680D
AccurateRip v2 signature : 3F574370
->Accurately ripped (v2, confidence 3/3)
Statistics
Read error : 0
Jitter error (maybe fixed) : 0
Retry sector count : 0
Damaged sector count : 0
Track 08
Filename : /Users/loicchahine/Downloads/_M/Lully - Amadis Rousset/2/08 Christophe Rousset, Les Talens Lyriques And Chœur De Chambre De Namur - Acte II, Scène 8, Air pour les démons et les monstres.flac
CRC32 hash : 016AEB28
CRC32 hash (skip zero) : 555D8AB9
AccurateRip v1 signature : BCF36CFD
AccurateRip v2 signature : FC32EFC3
->Accurately ripped (v2, confidence 3/3)
Statistics
Read error : 0
Jitter error (maybe fixed) : 0
Retry sector count : 0
Damaged sector count : 0
Track 09
Filename : /Users/loicchahine/Downloads/_M/Lully - Amadis Rousset/2/09 Christophe Rousset, Les Talens Lyriques And Chœur De Chambre De Namur - Acte II, Scène 9, Symphonie des enchantements "Non, non, pour être invincible" (Troupe de démons enchanteurs).flac
CRC32 hash : 2702F31C
CRC32 hash (skip zero) : 640B4D05
AccurateRip v1 signature : 91DCF004
AccurateRip v2 signature : D0EFE259
->Accurately ripped (v2, confidence 3/3)
Statistics
Read error : 0
Jitter error (maybe fixed) : 0
Retry sector count : 0
Damaged sector count : 0
Track 10
Filename : /Users/loicchahine/Downloads/_M/Lully - Amadis Rousset/2/10 Christophe Rousset, Les Talens Lyriques And Chœur De Chambre De Namur - Acte II, Trio "Aimez, soupirez, cœurs fidèles" (Deux démons sous la forme de bergers).flac
CRC32 hash : CDDFAFE2
CRC32 hash (skip zero) : AA3997D4
AccurateRip v1 signature : 730E5B5A
AccurateRip v2 signature : A80942C2
->Accurately ripped (v2, confidence 3/3)
Statistics
Read error : 0
Jitter error (maybe fixed) : 0
Retry sector count : 0
Damaged sector count : 0
Track 11
Filename : /Users/loicchahine/Downloads/_M/Lully - Amadis Rousset/2/11 Christophe Rousset, Les Talens Lyriques And Chœur De Chambre De Namur - Acte II, Trio "Vous ne devez plus attendre" (Deux démons sous la forme de nymphes et la troupe de démons enchanteurs).flac
CRC32 hash : FDF0E9D8
CRC32 hash (skip zero) : 2477347B
AccurateRip v1 signature : 6D614E3E
AccurateRip v2 signature : F3F70326
->Accurately ripped (v2, confidence 3/3)
Statistics
Read error : 0
Jitter error (maybe fixed) : 0
Retry sector count : 0
Damaged sector count : 0
Track 12
Filename : /Users/loicchahine/Downloads/_M/Lully - Amadis Rousset/2/12 Christophe Rousset, Les Talens Lyriques, Chœur De Chambre De Namur And Cyril Auvity - Acte II, Est-ce vous Oriane ! Ô Ciel ! Est-il possible ? (Amadis).flac
CRC32 hash : 8F3A5939
CRC32 hash (skip zero) : BC3581CA
AccurateRip v1 signature : 1D863560
AccurateRip v2 signature : A1736AE7
->Accurately ripped (v2, confidence 3/3)
Statistics
Read error : 0
Jitter error (maybe fixed) : 0
Retry sector count : 0
Damaged sector count : 0
Track 13
Filename : /Users/loicchahine/Downloads/_M/Lully - Amadis Rousset/2/13 Christophe Rousset, Les Talens Lyriques And Chœur De Chambre De Namur - Acte II, Non, non, pour être invincible (Troupe de démons enchanteurs).flac
CRC32 hash : FF8CE7AD
CRC32 hash (skip zero) : 2DD7ACFE
AccurateRip v1 signature : F9DC2A2B
AccurateRip v2 signature : 9ABA987C
->Accurately ripped (v2, confidence 3/3)
Statistics
Read error : 0
Jitter error (maybe fixed) : 0
Retry sector count : 0
Damaged sector count : 0
Track 14
Filename : /Users/loicchahine/Downloads/_M/Lully - Amadis Rousset/2/14 Christophe Rousset, Les Talens Lyriques And Chœur De Chambre De Namur - Acte II, Second air (reprise).flac
CRC32 hash : A439A3A1
CRC32 hash (skip zero) : D923A464
AccurateRip v1 signature : A1B03FA3
AccurateRip v2 signature : DF3810BA
->Accurately ripped (v2, confidence 3/3)
Statistics
Read error : 0
Jitter error (maybe fixed) : 0
Retry sector count : 0
Damaged sector count : 0
Track 15
Filename : /Users/loicchahine/Downloads/_M/Lully - Amadis Rousset/2/15 Christophe Rousset, Les Talens Lyriques, Chœur de Chambre de Namur, Benoit Arnould and Hasnaa Bennani - Acte III, Scène 1, Prélude "Ciel ! Finissez nos peines" (Florestan, Corisande, Chœur de captives et de captifs enfermés, Chœur de ge.flac
CRC32 hash : 03FEC20E
CRC32 hash (skip zero) : F95E616D
AccurateRip v1 signature : 3C8EA564
AccurateRip v2 signature : 874987ED
->Accurately ripped (v2, confidence 3/3)
Statistics
Read error : 0
Jitter error (maybe fixed) : 0
Retry sector count : 0
Damaged sector count : 0
Track 16
Filename : /Users/loicchahine/Downloads/_M/Lully - Amadis Rousset/2/16 Christophe Rousset, Les Talens Lyriques And Chœur De Chambre De Namur - Acte III, Scène 2, Prélude "Il est temps de finir votre plainte importune" (Troupe de captives et captifs, Troupe des geôliers et Arcabonne).flac
CRC32 hash : 61721C97
CRC32 hash (skip zero) : 9A414880
AccurateRip v1 signature : 75FE4359
AccurateRip v2 signature : 4B8B90DF
->Accurately ripped (v2, confidence 3/3)
Statistics
Read error : 0
Jitter error (maybe fixed) : 0
Retry sector count : 0
Damaged sector count : 0
Track 17
Filename : /Users/loicchahine/Downloads/_M/Lully - Amadis Rousset/2/17 Christophe Rousset, Les Talens Lyriques, Chœur de Chambre de Namur and Hasnaa Bennani - Acte III, Florestan ! (Les mêmes, Corisande).flac
CRC32 hash : 762000A7
CRC32 hash (skip zero) : 7A935CCD
AccurateRip v1 signature : 98A56D41
AccurateRip v2 signature : 8CC1822D
->Accurately ripped (v2, confidence 3/3)
Statistics
Read error : 0
Jitter error (maybe fixed) : 0
Retry sector count : 0
Damaged sector count : 0
Track 18
Filename : /Users/loicchahine/Downloads/_M/Lully - Amadis Rousset/2/18 Christophe Rousset, Les Talens Lyriques, Chœur de Chambre de Namur, Ingrid Perruche and Pierrick Boisseau - Acte III: Toi qui dans ce tombeau (Arcabonne).flac
CRC32 hash : 1D36576D
CRC32 hash (skip zero) : A968503F
AccurateRip v1 signature : E7714A99
AccurateRip v2 signature : 77557E37
->Accurately ripped (v2, confidence 3/3)
Statistics
Read error : 0
Jitter error (maybe fixed) : 0
Retry sector count : 0
Damaged sector count : 0
Track 19
Filename : /Users/loicchahine/Downloads/_M/Lully - Amadis Rousset/2/19 Christophe Rousset, Les Talens Lyriques, Chœur de Chambre de Namur, Cyril Auvity and Ingrid Perruche - Acte III, scène 3, Ah ! Tu me trahis, malheureuse (Arcabonne, L'Ombre d'Ardan Canile).flac
CRC32 hash : CE3985B6
CRC32 hash (skip zero) : 50A47478
AccurateRip v1 signature : 5480702B
AccurateRip v2 signature : E3BE4C9C
->Accurately ripped (v2, confidence 3/3)
Statistics
Read error : 0
Jitter error (maybe fixed) : 0
Retry sector count : 0
Damaged sector count : 0
Track 20
Filename : /Users/loicchahine/Downloads/_M/Lully - Amadis Rousset/2/20 Christophe Rousset, Les Talens Lyriques, Chœur de Chambre de Namur, Cyril Auvity and Ingrid Perruche - Acte III, scène 4, Prélude "Non, rien n'arrêtera la fureur qui m'anime" (Amadis, Arcabonne).flac
CRC32 hash : 8B742198
CRC32 hash (skip zero) : 3AB403AB
AccurateRip v1 signature : 2FCAA5D6
AccurateRip v2 signature : E34ACE94
->Accurately ripped (v2, confidence 3/3)
Statistics
Read error : 0
Jitter error (maybe fixed) : 0
Retry sector count : 0
Damaged sector count : 0
Track 21
Filename : /Users/loicchahine/Downloads/_M/Lully - Amadis Rousset/2/21 Christophe Rousset, Les Talens Lyriques And Chœur De Chambre De Namur - Acte III, Vivez, quittez vos fers, ne craignez plus ma haine (Amadis, Arcabonne).flac
CRC32 hash : DBC982BA
CRC32 hash (skip zero) : 5AE47E12
AccurateRip v1 signature : 41884C17
AccurateRip v2 signature : D4B024C3
->Accurately ripped (v2, confidence 3/3)
Statistics
Read error : 0
Jitter error (maybe fixed) : 0
Retry sector count : 0
Damaged sector count : 0
Track 22
Filename : /Users/loicchahine/Downloads/_M/Lully - Amadis Rousset/2/22 Christophe Rousset, Les Talens Lyriques, Chœur de Chambre de Namur, Hasnaa Bennani and Benoit Arnould - Acte III, scène 5, Prélude "Sortons d'esclavage" (Corisande, Florestan, Troupe de captives et captifs).flac
CRC32 hash : 85FD906E
CRC32 hash (skip zero) : C609E351
AccurateRip v1 signature : 9E5CB359
AccurateRip v2 signature : 5F603C54
->Accurately ripped (v2, confidence 3/3)
Statistics
Read error : 0
Jitter error (maybe fixed) : 0
Retry sector count : 0
Damaged sector count : 0
Track 23
Filename : /Users/loicchahine/Downloads/_M/Lully - Amadis Rousset/2/23 Christophe Rousset, Les Talens Lyriques And Chœur De Chambre De Namur - Acte III, Premier air.flac
CRC32 hash : 8EC8143B
CRC32 hash (skip zero) : 6256EA12
AccurateRip v1 signature : 91729069
AccurateRip v2 signature : 5293C554
->Accurately ripped (v2, confidence 3/3)
Statistics
Read error : 0
Jitter error (maybe fixed) : 0
Retry sector count : 0
Damaged sector count : 0
Track 24
Filename : /Users/loicchahine/Downloads/_M/Lully - Amadis Rousset/2/24 Christophe Rousset, Les Talens Lyriques, Chœur de Chambre de Namur, Hasnaa Bennani and Benoit Arnould - Acte III, Second air "Sortons d'esclavage" (Corisande, Florestan, Troupe de captives et captifs).flac
CRC32 hash : DFC40258
CRC32 hash (skip zero) : E792DA44
AccurateRip v1 signature : 97BDA56A
AccurateRip v2 signature : 602F1DAC
->Accurately ripped (v2, confidence 3/3)
Statistics
Read error : 0
Jitter error (maybe fixed) : 0
Retry sector count : 0
Damaged sector count : 0
Track 25
Filename : /Users/loicchahine/Downloads/_M/Lully - Amadis Rousset/2/25 Christophe Rousset, Les Talens Lyriques And Chœur De Chambre De Namur - Acte III, Premier air (reprise).flac
CRC32 hash : AFC72136
CRC32 hash (skip zero) : F1A17C17
AccurateRip v1 signature : 487C7057
AccurateRip v2 signature : 11028239
->Accurately ripped (v2, confidence 3/3)
Statistics
Read error : 0
Jitter error (maybe fixed) : 0
Retry sector count : 0
Damaged sector count : 0
No errors occurred
End of status report
CD3

скрытый текст

X Lossless Decoder version 20141129a (148.2)
XLD extraction logfile from 2015-11-20 21:55:04 +0100
Christophe Rousset: Les Talens lyriques / Lully: Amadis
Used drive : MATSHITA DVD-R UJ-898 (revision HC10)
Media type : Pressed CD
Ripper mode : XLD Secure Ripper
Disable audio cache : OK for the drive with a cache less than 1375KiB
Make use of C2 pointers : NO
Read offset correction : 102
Max retry count : 20
Gap status : Analyzed, Appended (except HTOA)
TOC of the extracted CD
Track | Start | Length | Start sector | End sector
---------------------------------------------------------
1 | 00:00:00 | 05:16:45 | 0 | 23744
2 | 05:16:45 | 02:17:03 | 23745 | 34022
3 | 07:33:48 | 02:37:64 | 34023 | 45861
4 | 10:11:37 | 01:52:26 | 45862 | 54287
5 | 12:03:63 | 01:13:02 | 54288 | 59764
6 | 13:16:65 | 01:17:53 | 59765 | 65592
7 | 14:34:43 | 02:14:19 | 65593 | 75661
8 | 16:48:62 | 01:14:26 | 75662 | 81237
9 | 18:03:13 | 02:20:45 | 81238 | 91782
10 | 20:23:58 | 02:42:60 | 91783 | 103992
11 | 23:06:43 | 01:39:45 | 103993 | 111462
12 | 24:46:13 | 03:23:18 | 111463 | 126705
13 | 28:09:31 | 07:12:01 | 126706 | 159106
14 | 35:21:32 | 02:06:42 | 159107 | 168598
15 | 37:27:74 | 02:24:57 | 168599 | 179455
16 | 39:52:56 | 01:54:01 | 179456 | 188006
17 | 41:46:57 | 07:10:56 | 188007 | 220312
18 | 48:57:38 | 07:22:11 | 220313 | 253473
AccurateRip Summary (DiscID: 001f2cc5-01a240dc-070d3312)
Track 01 : OK (v2, confidence 2/2)
Track 02 : OK (v2, confidence 2/2)
Track 03 : OK (v2, confidence 2/2)
Track 04 : OK (v2, confidence 2/2)
Track 05 : OK (v2, confidence 2/2)
Track 06 : OK (v2, confidence 2/2)
Track 07 : OK (v2, confidence 2/2)
Track 08 : OK (v2, confidence 2/2)
Track 09 : OK (v2, confidence 2/2)
Track 10 : OK (v2, confidence 2/2)
Track 11 : OK (v2, confidence 2/2)
Track 12 : OK (v2, confidence 2/2)
Track 13 : OK (v2, confidence 2/2)
Track 14 : OK (v2, confidence 2/2)
Track 15 : OK (v2, confidence 2/2)
Track 16 : OK (v2, confidence 2/2)
Track 17 : OK (v2, confidence 2/2)
Track 18 : OK (v2, confidence 2/2)
->All tracks accurately ripped.
All Tracks
Statistics
Read error : 0
Jitter error (maybe fixed) : 0
Retry sector count : 0
Damaged sector count : 0
Track 01
Filename : /Users/loicchahine/Downloads/_M/Lully - Amadis Rousset/3/01 Christophe Rousset, Les Talens Lyriques, Chœur de Chambre de Namur, Ingrid Perruche and Edwin Crossley-Mercer - Acte IV, Scène 1, Par mes enchantements Oriane est captive (Arcabonne, Arcalaüs).flac
Pre-gap length : 00:02:00
CRC32 hash : 1FBF497B
CRC32 hash (skip zero) : AD6DBB6E
AccurateRip v1 signature : 7B94A1B7
AccurateRip v2 signature : 95D920EA
->Accurately ripped (v2, confidence 2/2)
Statistics
Read error : 0
Jitter error (maybe fixed) : 0
Retry sector count : 0
Damaged sector count : 0
Track 02
Filename : /Users/loicchahine/Downloads/_M/Lully - Amadis Rousset/3/02 Christophe Rousset, Les Talens Lyriques, Chœur de Chambre de Namur and Judith van Wanroij - Acte IV, Scène 2, A qui pourrai-je avoir recours ? (Oriane).flac
CRC32 hash : B1E4484F
CRC32 hash (skip zero) : 36AD49E4
AccurateRip v1 signature : 28AE1BB2
AccurateRip v2 signature : F918A536
->Accurately ripped (v2, confidence 2/2)
Statistics
Read error : 0
Jitter error (maybe fixed) : 0
Retry sector count : 0
Damaged sector count : 0
Track 03
Filename : /Users/loicchahine/Downloads/_M/Lully - Amadis Rousset/3/03 Christophe Rousset, Les Talens Lyriques, Chœur de Chambre de Namur, Judith van Wanroij and Edwin Crossley-Mercer - Acte IV, Scène 3, Je vous entends, cessez de feindre (Oriane, Arcalüs).flac
CRC32 hash : 1178F867
CRC32 hash (skip zero) : F6572329
AccurateRip v1 signature : 893DD481
AccurateRip v2 signature : 225A45AB
->Accurately ripped (v2, confidence 2/2)
Statistics
Read error : 0
Jitter error (maybe fixed) : 0
Retry sector count : 0
Damaged sector count : 0
Track 04
Filename : /Users/loicchahine/Downloads/_M/Lully - Amadis Rousset/3/04 Christophe Rousset, Les Talens Lyriques, Chœur de Chambre de Namur and Judith van Wanroij - Acte IV, Scène 4, Que vois-je ! Ô spectacle effroyable ? (Oriane).flac
CRC32 hash : 88C913A7
CRC32 hash (skip zero) : AA9045D8
AccurateRip v1 signature : ECD25EA8
AccurateRip v2 signature : A6196511
->Accurately ripped (v2, confidence 2/2)
Statistics
Read error : 0
Jitter error (maybe fixed) : 0
Retry sector count : 0
Damaged sector count : 0
Track 05
Filename : /Users/loicchahine/Downloads/_M/Lully - Amadis Rousset/3/05 Christophe Rousset, Les Talens Lyriques, Chœur de Chambre de Namur and Judith van Wanroij - Acte IV, Il m'appelle, je le vais suivre (Oriane).flac
CRC32 hash : 7F452DC8
CRC32 hash (skip zero) : E41928F4
AccurateRip v1 signature : 3B7AAEDF
AccurateRip v2 signature : 830C2010
->Accurately ripped (v2, confidence 2/2)
Statistics
Read error : 0
Jitter error (maybe fixed) : 0
Retry sector count : 0
Damaged sector count : 0
Track 06
Filename : /Users/loicchahine/Downloads/_M/Lully - Amadis Rousset/3/06 Christophe Rousset, Les Talens Lyriques, Chœur de Chambre de Namur, Ingrid Perruche and Edwin Crossley-Mercer - Acte IV, Scène 5, Quel plaisir de voir (Arcabonne, Arcalaüs).flac
CRC32 hash : 212B2641
CRC32 hash (skip zero) : 39EA7B11
AccurateRip v1 signature : AB015998
AccurateRip v2 signature : 3869F969
->Accurately ripped (v2, confidence 2/2)
Statistics
Read error : 0
Jitter error (maybe fixed) : 0
Retry sector count : 0
Damaged sector count : 0
Track 07
Filename : /Users/loicchahine/Downloads/_M/Lully - Amadis Rousset/3/07 Christophe Rousset, Les Talens Lyriques, Chœur de Chambre de Namur and Bénédicte Tauran - Acte IV, Scène 6, Prélude "Je soumets à mes lois l'enfer, la terre et l'onde" (Urgande).flac
CRC32 hash : BF40BAA0
CRC32 hash (skip zero) : 5125DE36
AccurateRip v1 signature : 7B5069EC
AccurateRip v2 signature : F2B4858C
->Accurately ripped (v2, confidence 2/2)
Statistics
Read error : 0
Jitter error (maybe fixed) : 0
Retry sector count : 0
Damaged sector count : 0
Track 08
Filename : /Users/loicchahine/Downloads/_M/Lully - Amadis Rousset/3/08 Christophe Rousset, Les Talens Lyriques, Chœur de Chambre de Namur, Caroline Weynants, Virginie Thomas, Ingrid Perruche and Edwin Crossley-Mercer - Acte IV, Prélude "Tout mon effort est inutile" (Deux suivantes d'Urgande, Arcabonne et A.flac
CRC32 hash : 2B4C22FF
CRC32 hash (skip zero) : 5514CA22
AccurateRip v1 signature : 20BB4970
AccurateRip v2 signature : 00247D66
->Accurately ripped (v2, confidence 2/2)
Statistics
Read error : 0
Jitter error (maybe fixed) : 0
Retry sector count : 0
Damaged sector count : 0
Track 09
Filename : /Users/loicchahine/Downloads/_M/Lully - Amadis Rousset/3/09 Christophe Rousset, Les Talens Lyriques, Chœur de Chambre de Namur, Caroline Weynants and Virginie Thomas - Acte IV, Menuet pour les suivantes "Cœurs, accablés de rigueurs inhumaines" (Deux suivantes d'Urgande), Menuet pour les suivante.flac
CRC32 hash : FD7AD4CB
CRC32 hash (skip zero) : 2EDE0F2A
AccurateRip v1 signature : 64BDC042
AccurateRip v2 signature : 862B9722
->Accurately ripped (v2, confidence 2/2)
Statistics
Read error : 0
Jitter error (maybe fixed) : 0
Retry sector count : 0
Damaged sector count : 0
Track 10
Filename : /Users/loicchahine/Downloads/_M/Lully - Amadis Rousset/3/10 Christophe Rousset, Les Talens Lyriques, Chœur de Chambre de Namur, Ingrid Perruche and Edwin Crossley-Mercer - Acte IV, Scène 7, Prélude "Démons, soumis à nos lois" (Arcabonne et Arcalaüs).flac
CRC32 hash : FCCA3D85
CRC32 hash (skip zero) : CEC9C1F4
AccurateRip v1 signature : 2B4FFAC6
AccurateRip v2 signature : D5F5965F
->Accurately ripped (v2, confidence 2/2)
Statistics
Read error : 0
Jitter error (maybe fixed) : 0
Retry sector count : 0
Damaged sector count : 0
Track 11
Filename : /Users/loicchahine/Downloads/_M/Lully - Amadis Rousset/3/11 Christophe Rousset, Les Talens Lyriques And Chœur De Chambre De Namur - Acte IV, Second air acte III (reprise).flac
CRC32 hash : 4C975517
CRC32 hash (skip zero) : 4E07F9D8
AccurateRip v1 signature : AFA90AC2
AccurateRip v2 signature : 94DAA895
->Accurately ripped (v2, confidence 2/2)
Statistics
Read error : 0
Jitter error (maybe fixed) : 0
Retry sector count : 0
Damaged sector count : 0
Track 12
Filename : /Users/loicchahine/Downloads/_M/Lully - Amadis Rousset/3/12 Christophe Rousset, Les Talens Lyriques, Chœur de Chambre de Namur, Cyril Auvity and Bénédicte Tauran - Acte V, Scène 1, Prélude "Apollidon, par un pouvoir magique" (Amadis, Urgande).flac
CRC32 hash : 5A6069F4
CRC32 hash (skip zero) : 7486359A
AccurateRip v1 signature : B618578C
AccurateRip v2 signature : 514707CC
->Accurately ripped (v2, confidence 2/2)
Statistics
Read error : 0
Jitter error (maybe fixed) : 0
Retry sector count : 0
Damaged sector count : 0
Track 13
Filename : /Users/loicchahine/Downloads/_M/Lully - Amadis Rousset/3/13 Christophe Rousset, Les Talens Lyriques, Chœur De Chambre De Namur, Cyril Auvity And Judith Van Wanroij - Acte V, Scène 2, Fermez-vous pour jamais, mes yeux, mes tristes yeux (Amadis, Oriane).flac
CRC32 hash : 3ACE6C65
CRC32 hash (skip zero) : F092349D
AccurateRip v1 signature : F655909C
AccurateRip v2 signature : F0D4CEF4
->Accurately ripped (v2, confidence 2/2)
Statistics
Read error : 0
Jitter error (maybe fixed) : 0
Retry sector count : 0
Damaged sector count : 0
Track 14
Filename : /Users/loicchahine/Downloads/_M/Lully - Amadis Rousset/3/14 Christophe Rousset, Les Talens Lyriques, Chœur de Chambre de Namur, Cyril Auvity, Judith van Wanroij and Bénédicte Tauran - Acte V, Scène 3, Enfin, vos cœurs sont réunis, (Amadis, Oriane, Urgande).flac
CRC32 hash : 5686C16B
CRC32 hash (skip zero) : 3F75A7A0
AccurateRip v1 signature : 2FAFFF97
AccurateRip v2 signature : A3638E3C
->Accurately ripped (v2, confidence 2/2)
Statistics
Read error : 0
Jitter error (maybe fixed) : 0
Retry sector count : 0
Damaged sector count : 0
Track 15
Filename : /Users/loicchahine/Downloads/_M/Lully - Amadis Rousset/3/15 Christophe Rousset, Les Talens Lyriques, Chœur de Chambre de Namur, Benoit Arnould, Hasnaa Bennani, Cyril Auvity, Judith van Wanroij and Bénédicte Tauran - Acte V, Scène 4, Symphonie "Il est temps de vous arrêter" (Florestan, Corisande,.flac
CRC32 hash : 699EA181
CRC32 hash (skip zero) : 923FB66B
AccurateRip v1 signature : C0C388CC
AccurateRip v2 signature : CB08E47F
->Accurately ripped (v2, confidence 2/2)
Statistics
Read error : 0
Jitter error (maybe fixed) : 0
Retry sector count : 0
Damaged sector count : 0
Track 16
Filename : /Users/loicchahine/Downloads/_M/Lully - Amadis Rousset/3/16 Christophe Rousset, Les Talens Lyriques, Chœur de Chambre de Namur and Caroline Weynants - Acte V, Scène 5, Prélude "Fidèles cœurs, votre constance" (Une héroïne).flac
CRC32 hash : 32502D62
CRC32 hash (skip zero) : 48F7A0FD
AccurateRip v1 signature : 97D99D84
AccurateRip v2 signature : AE4831A5
->Accurately ripped (v2, confidence 2/2)
Statistics
Read error : 0
Jitter error (maybe fixed) : 0
Retry sector count : 0
Damaged sector count : 0
Track 17
Filename : /Users/loicchahine/Downloads/_M/Lully - Amadis Rousset/3/17 Christophe Rousset, Les Talens Lyriques And Chœur De Chambre De Namur - Acte V, Chaconne.flac
CRC32 hash : AEF65BDB
CRC32 hash (skip zero) : F6F08C0C
AccurateRip v1 signature : 138016BD
AccurateRip v2 signature : EBE9AB98
->Accurately ripped (v2, confidence 2/2)
Statistics
Read error : 0
Jitter error (maybe fixed) : 0
Retry sector count : 0
Damaged sector count : 0
Track 18
Filename : /Users/loicchahine/Downloads/_M/Lully - Amadis Rousset/3/18 Christophe Rousset, Les Talens Lyriques And Chœur De Chambre De Namur - Acte V, Chantons tous, en ce jour (Grand chœur).flac
CRC32 hash : B8C346A9
CRC32 hash (skip zero) : 979D0A26
AccurateRip v1 signature : 29BCA87C
AccurateRip v2 signature : F2D2EE56
->Accurately ripped (v2, confidence 2/2)
Statistics
Read error : 0
Jitter error (maybe fixed) : 0
Retry sector count : 0
Damaged sector count : 0
No errors occurred
End of status report

Содержание индексной карты (.CUE)

CD1

скрытый текст

TITLE "Lully: Amadis"
PERFORMER "Christophe Rousset: Les Talens lyriques"
REM GENRE "Classical"
REM DATE "2014"
REM DISCNUMBER 1
REM TOTALDISCS 3
REM DISCID C20A040F
REM COMPILATION TRUE
FILE "01 Christophe Rousset, Les Talens Lyriques And Chœur De Chambre De Namur - Prologue - Ouverture.flac" WAVE
TRACK 01 AUDIO
TITLE "Prologue - Ouverture"
PERFORMER "Christophe Rousset, Les Talens Lyriques And Chœur De Chambre De Namur"
SONGWRITER "Jean-Baptiste Lully"
ISRC FROV61309401
INDEX 01 00:00:00
FILE "02 Christophe Rousset, Les Talens Lyriques, Chœur de Chambre de Namur, Bénédicte Tauran and Pierrick Boisseau - Ah ! J'entends un bruit qui nous presse (Chœur, Urgande et Alquif).flac" WAVE
TRACK 02 AUDIO
TITLE "Ah ! J'entends un bruit qui nous presse (Chœur, Urgande et Alquif)"
PERFORMER "Christophe Rousset, Les Talens Lyriques, Chœur de Chambre de Namur, Bénédicte Tauran and Pierrick Boisseau"
SONGWRITER "Jean-Baptiste Lully"
ISRC FROV61309402
INDEX 01 00:00:00
FILE "03 Christophe Rousset, Les Talens Lyriques And Chœur De Chambre De Namur - Premier air.flac" WAVE
TRACK 03 AUDIO
TITLE "Premier air"
PERFORMER "Christophe Rousset, Les Talens Lyriques And Chœur De Chambre De Namur"
SONGWRITER "Jean-Baptiste Lully"
ISRC FROV61309403
INDEX 01 00:00:00
FILE "04 Christophe Rousset, Les Talens Lyriques, Chœur de Chambre de Namur and Caroline Weynants - Second air "Les plaisirs nous suivront désormais" (une des suivantes d'Urgande).flac" WAVE
TRACK 04 AUDIO
TITLE "Second air "Les plaisirs nous suivront désormais" (une des suivantes d'Urgande)"
PERFORMER "Christophe Rousset, Les Talens Lyriques, Chœur de Chambre de Namur and Caroline Weynants"
SONGWRITER "Jean-Baptiste Lully"
ISRC FROV61309404
INDEX 01 00:00:00
FILE "05 Christophe Rousset, Les Talens Lyriques, Chœur de Chambre de Namur, Pierrick Boisseau and Bénédicte Tauran - Lorsqu'Amadis périt, une douleur profonde (Chœur, Alquif, Urgande).flac" WAVE
TRACK 05 AUDIO
TITLE "Lorsqu'Amadis périt, une douleur profonde (Chœur, Alquif, Urgande)"
PERFORMER "Christophe Rousset, Les Talens Lyriques, Chœur de Chambre de Namur, Pierrick Boisseau and Bénédicte Tauran"
SONGWRITER "Jean-Baptiste Lully"
ISRC FROV61309405
INDEX 01 00:00:00
FILE "06 Christophe Rousset, Les Talens Lyriques, Chœur de Chambre de Namur and Caroline Weynants - Rondeau "Suivions l'amour, c'est lui qui nous mène" (Chœur, une des suivantes d'Urgande).flac" WAVE
TRACK 06 AUDIO
TITLE "Rondeau "Suivions l'amour, c'est lui qui nous mène" (Chœur, une des suivantes d'Urgande)"
PERFORMER "Christophe Rousset, Les Talens Lyriques, Chœur de Chambre de Namur and Caroline Weynants"
SONGWRITER "Jean-Baptiste Lully"
ISRC FROV61309406
INDEX 01 00:00:00
FILE "07 Christophe Rousset, Les Talens Lyriques, Chœur de Chambre de Namur, Bénédicte Tauran and Pierrick Boisseau - Volez, tendres amours, Amadis va revivre (Chœur, Urgande et Alquif).flac" WAVE
TRACK 07 AUDIO
TITLE "Volez, tendres amours, Amadis va revivre (Chœur, Urgande et Alquif)"
PERFORMER "Christophe Rousset, Les Talens Lyriques, Chœur de Chambre de Namur, Bénédicte Tauran and Pierrick Boisseau"
SONGWRITER "Jean-Baptiste Lully"
ISRC FROV61309407
INDEX 01 00:00:00
FILE "08 Christophe Rousset, Les Talens Lyriques And Chœur De Chambre De Namur - Ouverture (reprise).flac" WAVE
TRACK 08 AUDIO
TITLE "Ouverture (reprise)"
PERFORMER "Christophe Rousset, Les Talens Lyriques And Chœur De Chambre De Namur"
SONGWRITER "Jean-Baptiste Lully"
ISRC FROV61309408
INDEX 01 00:00:00
FILE "09 Christophe Rousset, Les Talens Lyriques, Chœur de Chambre de Namur, Cyril Auvity and Benoit Arnould - Acte I, Scène 1, Je reviens dans ces lieux pour y voir ce que j'aime (Amadis, Florestan).flac" WAVE
TRACK 09 AUDIO
TITLE "Acte I, Scène 1, Je reviens dans ces lieux pour y voir ce que j'aime (Amadis, Florestan)"
PERFORMER "Christophe Rousset, Les Talens Lyriques, Chœur de Chambre de Namur, Cyril Auvity and Benoit Arnould"
SONGWRITER "Jean-Baptiste Lully"
ISRC FROV61309409
INDEX 01 00:00:00
FILE "10 Christophe Rousset, Les Talens Lyriques, Chœur de Chambre de Namur, Benoit Arnould and Hasnaa Bennani - Acte I, Scène 2, Florestan ! (Florestan, Corisande).flac" WAVE
TRACK 10 AUDIO
TITLE "Acte I, Scène 2, Florestan ! (Florestan, Corisande)"
PERFORMER "Christophe Rousset, Les Talens Lyriques, Chœur de Chambre de Namur, Benoit Arnould and Hasnaa Bennani"
SONGWRITER "Jean-Baptiste Lully"
ISRC FROV61309410
INDEX 01 00:00:00
FILE "11 Christophe Rousset, Les Talens Lyriques, Chœur de Chambre de Namur, Judith van Wanroij, Benoit Arnould and Hasnaa Bennani - Acte I, Scène 3, Je revois Florestan, je le revois fidèle (Oriane, Florestan, Corisande).flac" WAVE
TRACK 11 AUDIO
TITLE "Acte I, Scène 3, Je revois Florestan, je le revois fidèle (Oriane, Florestan, Corisande)"
PERFORMER "Christophe Rousset, Les Talens Lyriques, Chœur de Chambre de Namur, Judith van Wanroij, Benoit Arnould and Hasnaa Bennani"
SONGWRITER "Jean-Baptiste Lully"
ISRC FROV61309411
INDEX 01 00:00:00
FILE "12 Christophe Rousset, Les Talens Lyriques And Chœur De Chambre De Namur - Acte I, Scène 4, Marche pour le combat de la barrière.flac" WAVE
TRACK 12 AUDIO
TITLE "Acte I, Scène 4, Marche pour le combat de la barrière"
PERFORMER "Christophe Rousset, Les Talens Lyriques And Chœur De Chambre De Namur"
SONGWRITER "Jean-Baptiste Lully"
ISRC FROV61309412
INDEX 01 00:00:00
FILE "13 Christophe Rousset, Les Talens Lyriques And Chœur De Chambre De Namur - Acte I, Premier air des combattants.flac" WAVE
TRACK 13 AUDIO
TITLE "Acte I, Premier air des combattants"
PERFORMER "Christophe Rousset, Les Talens Lyriques And Chœur De Chambre De Namur"
SONGWRITER "Jean-Baptiste Lully"
ISRC FROV61309413
INDEX 01 00:00:00
FILE "14 Christophe Rousset, Les Talens Lyriques And Chœur De Chambre De Namur - Acte I, Belle princesse, que vos charmes (Troupe de combattants).flac" WAVE
TRACK 14 AUDIO
TITLE "Acte I, Belle princesse, que vos charmes (Troupe de combattants)"
PERFORMER "Christophe Rousset, Les Talens Lyriques And Chœur De Chambre De Namur"
SONGWRITER "Jean-Baptiste Lully"
ISRC FROV61309414
INDEX 01 00:00:00
FILE "15 Christophe Rousset, Les Talens Lyriques And Chœur De Chambre De Namur - Acte I, Marche pour le combat de la barrière (reprise).flac" WAVE
TRACK 15 AUDIO
TITLE "Acte I, Marche pour le combat de la barrière (reprise)"
PERFORMER "Christophe Rousset, Les Talens Lyriques And Chœur De Chambre De Namur"
SONGWRITER "Jean-Baptiste Lully"
ISRC FROV61309415
INDEX 01 00:00:00
CD2

скрытый текст

TITLE "Lully: Amadis"
PERFORMER "Christophe Rousset: Les Talens lyriques"
REM GENRE "Classical"
REM DATE "2014"
REM DISCNUMBER 2
REM TOTALDISCS 3
REM DISCID 590F3819
REM COMPILATION TRUE
FILE "01 Christophe Rousset, Les Talens Lyriques, Chœur de Chambre de Namur and Ingrid Perruche - Acte II, Scène 1, Prélude "Amour, que veux-tu de moi ?" (Arcabonne).flac" WAVE
TRACK 01 AUDIO
TITLE "Acte II, Scène 1, Prélude "Amour, que veux-tu de moi ?" (Arcabonne)"
PERFORMER "Christophe Rousset, Les Talens Lyriques, Chœur de Chambre de Namur and Ingrid Perruche"
SONGWRITER "Jean-Baptiste Lully"
ISRC FROV61309416
INDEX 01 00:00:00
FILE "02 Christophe Rousset, Les Talens Lyriques, Chœur de Chambre de Namur, Ingrid Perruche and Edwin Crossley-Mercer - Acte II, Scène 2, Ma sœur, qui peut causer votre sombre tritesse ? (Arcabonne, Arcalaüs).flac" WAVE
TRACK 02 AUDIO
TITLE "Acte II, Scène 2, Ma sœur, qui peut causer votre sombre tritesse ? (Arcabonne, Arcalaüs)"
PERFORMER "Christophe Rousset, Les Talens Lyriques, Chœur de Chambre de Namur, Ingrid Perruche and Edwin Crossley-Mercer"
SONGWRITER "Jean-Baptiste Lully"
ISRC FROV61309417
INDEX 01 00:00:00
FILE "03 Christophe Rousset, Les Talens Lyriques, Chœur de Chambre de Namur and Edwin Crossley-Mercer - Acte II, Scène 3, Dans un piège fatal son mauvais sort l'amène. (Arcalaüs).flac" WAVE
TRACK 03 AUDIO
TITLE "Acte II, Scène 3, Dans un piège fatal son mauvais sort l'amène. (Arcalaüs)"
PERFORMER "Christophe Rousset, Les Talens Lyriques, Chœur de Chambre de Namur and Edwin Crossley-Mercer"
SONGWRITER "Jean-Baptiste Lully"
ISRC FROV61309418
INDEX 01 00:00:00
FILE "04 Christophe Rousset, Les Talens Lyriques, Chœur De Chambre De Namur And Cyril Auvity - Acte II, Scène 4, Prélude "Bois épais, redouble ton ombre" (Amadis).flac" WAVE
TRACK 04 AUDIO
TITLE "Acte II, Scène 4, Prélude "Bois épais, redouble ton ombre" (Amadis)"
PERFORMER "Christophe Rousset, Les Talens Lyriques, Chœur De Chambre De Namur And Cyril Auvity"
SONGWRITER "Jean-Baptiste Lully"
ISRC FROV61309419
INDEX 01 00:00:00
FILE "05 Christophe Rousset, Les Talens Lyriques, Chœur de Chambre de Namur, Cyril Auvity and Hasnaa Bennani - Acte II, Scène 5, Ritournelle "Ô fortune cruelle !" (Amadis, Corisande).flac" WAVE
TRACK 05 AUDIO
TITLE "Acte II, Scène 5, Ritournelle "Ô fortune cruelle !" (Amadis, Corisande)"
PERFORMER "Christophe Rousset, Les Talens Lyriques, Chœur de Chambre de Namur, Cyril Auvity and Hasnaa Bennani"
SONGWRITER "Jean-Baptiste Lully"
ISRC FROV61309420
INDEX 01 00:00:00
FILE "06 Christophe Rousset, Les Talens Lyriques, Chœur de Chambre de Namur, Cyril Auvity, Hasnaa Bennani and Edwin Crossley-Mercer - Acte II, Scène 6, Arrête, audacieux (Amadis, Corisande, Arcalaüs).flac" WAVE
TRACK 06 AUDIO
TITLE "Acte II, Scène 6, Arrête, audacieux (Amadis, Corisande, Arcalaüs)"
PERFORMER "Christophe Rousset, Les Talens Lyriques, Chœur de Chambre de Namur, Cyril Auvity, Hasnaa Bennani and Edwin Crossley-Mercer"
SONGWRITER "Jean-Baptiste Lully"
ISRC FROV61309421
INDEX 01 00:00:00
FILE "07 Christophe Rousset, Les Talens Lyriques, Edwin Crossley-Mercer, Chœur De Chambre De Namur And Cyril Auvity - Acte II, Scène 7, Esprits infernaux, il est temps (Amadis, Arcalaüs).flac" WAVE
TRACK 07 AUDIO
TITLE "Acte II, Scène 7, Esprits infernaux, il est temps (Amadis, Arcalaüs)"
PERFORMER "Christophe Rousset, Les Talens Lyriques, Edwin Crossley-Mercer, Chœur De Chambre De Namur And Cyril Auvity"
SONGWRITER "Jean-Baptiste Lully"
ISRC FROV61309422
INDEX 01 00:00:00
FILE "08 Christophe Rousset, Les Talens Lyriques And Chœur De Chambre De Namur - Acte II, Scène 8, Air pour les démons et les monstres.flac" WAVE
TRACK 08 AUDIO
TITLE "Acte II, Scène 8, Air pour les démons et les monstres"
PERFORMER "Christophe Rousset, Les Talens Lyriques And Chœur De Chambre De Namur"
SONGWRITER "Jean-Baptiste Lully"
ISRC FROV61309423
INDEX 01 00:00:00
FILE "09 Christophe Rousset, Les Talens Lyriques And Chœur De Chambre De Namur - Acte II, Scène 9, Symphonie des enchantements "Non, non, pour être invincible" (Troupe de démons enchanteurs).flac" WAVE
TRACK 09 AUDIO
TITLE "Acte II, Scène 9, Symphonie des enchantements "Non, non, pour être invincible" (Troupe de démons enchanteurs)"
PERFORMER "Christophe Rousset, Les Talens Lyriques And Chœur De Chambre De Namur"
SONGWRITER "Jean-Baptiste Lully"
ISRC FROV61309424
INDEX 01 00:00:00
FILE "10 Christophe Rousset, Les Talens Lyriques And Chœur De Chambre De Namur - Acte II, Trio "Aimez, soupirez, cœurs fidèles" (Deux démons sous la forme de bergers).flac" WAVE
TRACK 10 AUDIO
TITLE "Acte II, Trio "Aimez, soupirez, cœurs fidèles" (Deux démons sous la forme de bergers)"
PERFORMER "Christophe Rousset, Les Talens Lyriques And Chœur De Chambre De Namur"
SONGWRITER "Jean-Baptiste Lully"
ISRC FROV61309425
INDEX 01 00:00:00
FILE "11 Christophe Rousset, Les Talens Lyriques And Chœur De Chambre De Namur - Acte II, Trio "Vous ne devez plus attendre" (Deux démons sous la forme de nymphes et la troupe de démons enchanteurs).flac" WAVE
TRACK 11 AUDIO
TITLE "Acte II, Trio "Vous ne devez plus attendre" (Deux démons sous la forme de nymphes et la troupe de démons enchanteurs)"
PERFORMER "Christophe Rousset, Les Talens Lyriques And Chœur De Chambre De Namur"
SONGWRITER "Jean-Baptiste Lully"
ISRC FROV61309426
INDEX 01 00:00:00
FILE "12 Christophe Rousset, Les Talens Lyriques, Chœur De Chambre De Namur And Cyril Auvity - Acte II, Est-ce vous Oriane ! Ô Ciel ! Est-il possible ? (Amadis).flac" WAVE
TRACK 12 AUDIO
TITLE "Acte II, Est-ce vous Oriane ! Ô Ciel ! Est-il possible ? (Amadis)"
PERFORMER "Christophe Rousset, Les Talens Lyriques, Chœur De Chambre De Namur And Cyril Auvity"
SONGWRITER "Jean-Baptiste Lully"
ISRC FROV61309427
INDEX 01 00:00:00
FILE "13 Christophe Rousset, Les Talens Lyriques And Chœur De Chambre De Namur - Acte II, Non, non, pour être invincible (Troupe de démons enchanteurs).flac" WAVE
TRACK 13 AUDIO
TITLE "Acte II, Non, non, pour être invincible (Troupe de démons enchanteurs)"
PERFORMER "Christophe Rousset, Les Talens Lyriques And Chœur De Chambre De Namur"
SONGWRITER "Jean-Baptiste Lully"
ISRC FROV61309428
INDEX 01 00:00:00
FILE "14 Christophe Rousset, Les Talens Lyriques And Chœur De Chambre De Namur - Acte II, Second air (reprise).flac" WAVE
TRACK 14 AUDIO
TITLE "Acte II, Second air (reprise)"
PERFORMER "Christophe Rousset, Les Talens Lyriques And Chœur De Chambre De Namur"
SONGWRITER "Jean-Baptiste Lully"
ISRC FROV61309429
INDEX 01 00:00:00
FILE "15 Christophe Rousset, Les Talens Lyriques, Chœur de Chambre de Namur, Benoit Arnould and Hasnaa Bennani - Acte III, Scène 1, Prélude "Ciel ! Finissez nos peines" (Florestan, Corisande, Chœur de captives et de captifs enfermés, Chœur de ge.flac" WAVE
TRACK 15 AUDIO
TITLE "Acte III, Scène 1, Prélude "Ciel ! Finissez nos peines" (Florestan, Corisande, Chœur de captives et de captifs enfermés, Chœur de geôliers)"
PERFORMER "Christophe Rousset, Les Talens Lyriques, Chœur de Chambre de Namur, Benoit Arnould and Hasnaa Bennani"
SONGWRITER "Jean-Baptiste Lully"
ISRC FROV61309430
INDEX 01 00:00:00
FILE "16 Christophe Rousset, Les Talens Lyriques And Chœur De Chambre De Namur - Acte III, Scène 2, Prélude "Il est temps de finir votre plainte importune" (Troupe de captives et captifs, Troupe des geôliers et Arcabonne).flac" WAVE
TRACK 16 AUDIO
TITLE "Acte III, Scène 2, Prélude "Il est temps de finir votre plainte importune" (Troupe de captives et captifs, Troupe des geôliers et Arcabonne)"
PERFORMER "Christophe Rousset, Les Talens Lyriques And Chœur De Chambre De Namur"
SONGWRITER "Jean-Baptiste Lully"
ISRC FROV61309431
INDEX 01 00:00:00
FILE "17 Christophe Rousset, Les Talens Lyriques, Chœur de Chambre de Namur and Hasnaa Bennani - Acte III, Florestan ! (Les mêmes, Corisande).flac" WAVE
TRACK 17 AUDIO
TITLE "Acte III, Florestan ! (Les mêmes, Corisande)"
PERFORMER "Christophe Rousset, Les Talens Lyriques, Chœur de Chambre de Namur and Hasnaa Bennani"
SONGWRITER "Jean-Baptiste Lully"
ISRC FROV61309432
INDEX 01 00:00:00
FILE "18 Christophe Rousset, Les Talens Lyriques, Chœur de Chambre de Namur, Ingrid Perruche and Pierrick Boisseau - Acte III: Toi qui dans ce tombeau (Arcabonne).flac" WAVE
TRACK 18 AUDIO
TITLE "Acte III: Toi qui dans ce tombeau (Arcabonne)"
PERFORMER "Christophe Rousset, Les Talens Lyriques, Chœur de Chambre de Namur, Ingrid Perruche and Pierrick Boisseau"
SONGWRITER "Jean-Baptiste Lully"
ISRC FROV61309433
INDEX 01 00:00:00
FILE "19 Christophe Rousset, Les Talens Lyriques, Chœur de Chambre de Namur, Cyril Auvity and Ingrid Perruche - Acte III, scène 3, Ah ! Tu me trahis, malheureuse (Arcabonne, L'Ombre d'Ardan Canile).flac" WAVE
TRACK 19 AUDIO
TITLE "Acte III, scène 3, Ah ! Tu me trahis, malheureuse (Arcabonne, L'Ombre d'Ardan Canile)"
PERFORMER "Christophe Rousset, Les Talens Lyriques, Chœur de Chambre de Namur, Cyril Auvity and Ingrid Perruche"
SONGWRITER "Jean-Baptiste Lully"
ISRC FROV61309434
INDEX 01 00:00:00
FILE "20 Christophe Rousset, Les Talens Lyriques, Chœur de Chambre de Namur, Cyril Auvity and Ingrid Perruche - Acte III, scène 4, Prélude "Non, rien n'arrêtera la fureur qui m'anime" (Amadis, Arcabonne).flac" WAVE
TRACK 20 AUDIO
TITLE "Acte III, scène 4, Prélude "Non, rien n'arrêtera la fureur qui m'anime" (Amadis, Arcabonne)"
PERFORMER "Christophe Rousset, Les Talens Lyriques, Chœur de Chambre de Namur, Cyril Auvity and Ingrid Perruche"
SONGWRITER "Jean-Baptiste Lully"
ISRC FROV61309435
INDEX 01 00:00:00
FILE "21 Christophe Rousset, Les Talens Lyriques And Chœur De Chambre De Namur - Acte III, Vivez, quittez vos fers, ne craignez plus ma haine (Amadis, Arcabonne).flac" WAVE
TRACK 21 AUDIO
TITLE "Acte III, Vivez, quittez vos fers, ne craignez plus ma haine (Amadis, Arcabonne)"
PERFORMER "Christophe Rousset, Les Talens Lyriques And Chœur De Chambre De Namur"
SONGWRITER "Jean-Baptiste Lully"
ISRC FROV61309436
INDEX 01 00:00:00
FILE "22 Christophe Rousset, Les Talens Lyriques, Chœur de Chambre de Namur, Hasnaa Bennani and Benoit Arnould - Acte III, scène 5, Prélude "Sortons d'esclavage" (Corisande, Florestan, Troupe de captives et captifs).flac" WAVE
TRACK 22 AUDIO
TITLE "Acte III, scène 5, Prélude "Sortons d'esclavage" (Corisande, Florestan, Troupe de captives et captifs)"
PERFORMER "Christophe Rousset, Les Talens Lyriques, Chœur de Chambre de Namur, Hasnaa Bennani and Benoit Arnould"
SONGWRITER "Jean-Baptiste Lully"
ISRC FROV61309437
INDEX 01 00:00:00
FILE "23 Christophe Rousset, Les Talens Lyriques And Chœur De Chambre De Namur - Acte III, Premier air.flac" WAVE
TRACK 23 AUDIO
TITLE "Acte III, Premier air"
PERFORMER "Christophe Rousset, Les Talens Lyriques And Chœur De Chambre De Namur"
SONGWRITER "Jean-Baptiste Lully"
ISRC FROV61309438
INDEX 01 00:00:00
FILE "24 Christophe Rousset, Les Talens Lyriques, Chœur de Chambre de Namur, Hasnaa Bennani and Benoit Arnould - Acte III, Second air "Sortons d'esclavage" (Corisande, Florestan, Troupe de captives et captifs).flac" WAVE
TRACK 24 AUDIO
TITLE "Acte III, Second air "Sortons d'esclavage" (Corisande, Florestan, Troupe de captives et captifs)"
PERFORMER "Christophe Rousset, Les Talens Lyriques, Chœur de Chambre de Namur, Hasnaa Bennani and Benoit Arnould"
SONGWRITER "Jean-Baptiste Lully"
ISRC FROV61309439
INDEX 01 00:00:00
FILE "25 Christophe Rousset, Les Talens Lyriques And Chœur De Chambre De Namur - Acte III, Premier air (reprise).flac" WAVE
TRACK 25 AUDIO
TITLE "Acte III, Premier air (reprise)"
PERFORMER "Christophe Rousset, Les Talens Lyriques And Chœur De Chambre De Namur"
SONGWRITER "Jean-Baptiste Lully"
ISRC FROV61309440
INDEX 01 00:00:00
CD3

скрытый текст

TITLE "Lully: Amadis"
PERFORMER "Christophe Rousset: Les Talens lyriques"
REM GENRE "Classical"
REM DATE "2014"
REM DISCNUMBER 3
REM TOTALDISCS 3
REM DISCID 070D3312
REM COMPILATION TRUE
FILE "01 Christophe Rousset, Les Talens Lyriques, Chœur de Chambre de Namur, Ingrid Perruche and Edwin Crossley-Mercer - Acte IV, Scène 1, Par mes enchantements Oriane est captive (Arcabonne, Arcalaüs).flac" WAVE
TRACK 01 AUDIO
TITLE "Acte IV, Scène 1, Par mes enchantements Oriane est captive (Arcabonne, Arcalaüs)"
PERFORMER "Christophe Rousset, Les Talens Lyriques, Chœur de Chambre de Namur, Ingrid Perruche and Edwin Crossley-Mercer"
SONGWRITER "Jean-Baptiste Lully"
ISRC FROV61309441
INDEX 01 00:00:00
FILE "02 Christophe Rousset, Les Talens Lyriques, Chœur de Chambre de Namur and Judith van Wanroij - Acte IV, Scène 2, A qui pourrai-je avoir recours ? (Oriane).flac" WAVE
TRACK 02 AUDIO
TITLE "Acte IV, Scène 2, A qui pourrai-je avoir recours ? (Oriane)"
PERFORMER "Christophe Rousset, Les Talens Lyriques, Chœur de Chambre de Namur and Judith van Wanroij"
SONGWRITER "Jean-Baptiste Lully"
ISRC FROV61309442
INDEX 01 00:00:00
FILE "03 Christophe Rousset, Les Talens Lyriques, Chœur de Chambre de Namur, Judith van Wanroij and Edwin Crossley-Mercer - Acte IV, Scène 3, Je vous entends, cessez de feindre (Oriane, Arcalüs).flac" WAVE
TRACK 03 AUDIO
TITLE "Acte IV, Scène 3, Je vous entends, cessez de feindre (Oriane, Arcalüs)"
PERFORMER "Christophe Rousset, Les Talens Lyriques, Chœur de Chambre de Namur, Judith van Wanroij and Edwin Crossley-Mercer"
SONGWRITER "Jean-Baptiste Lully"
ISRC FROV61309443
INDEX 01 00:00:00
FILE "04 Christophe Rousset, Les Talens Lyriques, Chœur de Chambre de Namur and Judith van Wanroij - Acte IV, Scène 4, Que vois-je ! Ô spectacle effroyable ? (Oriane).flac" WAVE
TRACK 04 AUDIO
TITLE "Acte IV, Scène 4, Que vois-je ! Ô spectacle effroyable ? (Oriane)"
PERFORMER "Christophe Rousset, Les Talens Lyriques, Chœur de Chambre de Namur and Judith van Wanroij"
SONGWRITER "Jean-Baptiste Lully"
ISRC FROV61309444
INDEX 01 00:00:00
FILE "05 Christophe Rousset, Les Talens Lyriques, Chœur de Chambre de Namur and Judith van Wanroij - Acte IV, Il m'appelle, je le vais suivre (Oriane).flac" WAVE
TRACK 05 AUDIO
TITLE "Acte IV, Il m'appelle, je le vais suivre (Oriane)"
PERFORMER "Christophe Rousset, Les Talens Lyriques, Chœur de Chambre de Namur and Judith van Wanroij"
SONGWRITER "Jean-Baptiste Lully"
ISRC FROV61309445
INDEX 01 00:00:00
FILE "06 Christophe Rousset, Les Talens Lyriques, Chœur de Chambre de Namur, Ingrid Perruche and Edwin Crossley-Mercer - Acte IV, Scène 5, Quel plaisir de voir (Arcabonne, Arcalaüs).flac" WAVE
TRACK 06 AUDIO
TITLE "Acte IV, Scène 5, Quel plaisir de voir (Arcabonne, Arcalaüs)"
PERFORMER "Christophe Rousset, Les Talens Lyriques, Chœur de Chambre de Namur, Ingrid Perruche and Edwin Crossley-Mercer"
SONGWRITER "Jean-Baptiste Lully"
ISRC FROV61309446
INDEX 01 00:00:00
FILE "07 Christophe Rousset, Les Talens Lyriques, Chœur de Chambre de Namur and Bénédicte Tauran - Acte IV, Scène 6, Prélude "Je soumets à mes lois l'enfer, la terre et l'onde" (Urgande).flac" WAVE
TRACK 07 AUDIO
TITLE "Acte IV, Scène 6, Prélude "Je soumets à mes lois l'enfer, la terre et l'onde" (Urgande)"
PERFORMER "Christophe Rousset, Les Talens Lyriques, Chœur de Chambre de Namur and Bénédicte Tauran"
SONGWRITER "Jean-Baptiste Lully"
ISRC FROV61309447
INDEX 01 00:00:00
FILE "08 Christophe Rousset, Les Talens Lyriques, Chœur de Chambre de Namur, Caroline Weynants, Virginie Thomas, Ingrid Perruche and Edwin Crossley-Mercer - Acte IV, Prélude "Tout mon effort est inutile" (Deux suivantes d'Urgande, Arcabonne et A.flac" WAVE
TRACK 08 AUDIO
TITLE "Acte IV, Prélude "Tout mon effort est inutile" (Deux suivantes d'Urgande, Arcabonne et Arcalüs)"
PERFORMER "Christophe Rousset, Les Talens Lyriques, Chœur de Chambre de Namur, Caroline Weynants, Virginie Thomas, Ingrid Perruche and Edwin Crossley-Mercer"
SONGWRITER "Jean-Baptiste Lully"
ISRC FROV61309448
INDEX 01 00:00:00
FILE "09 Christophe Rousset, Les Talens Lyriques, Chœur de Chambre de Namur, Caroline Weynants and Virginie Thomas - Acte IV, Menuet pour les suivantes "Cœurs, accablés de rigueurs inhumaines" (Deux suivantes d'Urgande), Menuet pour les suivante.flac" WAVE
TRACK 09 AUDIO
TITLE "Acte IV, Menuet pour les suivantes "Cœurs, accablés de rigueurs inhumaines" (Deux suivantes d'Urgande), Menuet pour les suivantes (reprise)"
PERFORMER "Christophe Rousset, Les Talens Lyriques, Chœur de Chambre de Namur, Caroline Weynants and Virginie Thomas"
SONGWRITER "Jean-Baptiste Lully"
ISRC FROV61309449
INDEX 01 00:00:00
FILE "10 Christophe Rousset, Les Talens Lyriques, Chœur de Chambre de Namur, Ingrid Perruche and Edwin Crossley-Mercer - Acte IV, Scène 7, Prélude "Démons, soumis à nos lois" (Arcabonne et Arcalaüs).flac" WAVE
TRACK 10 AUDIO
TITLE "Acte IV, Scène 7, Prélude "Démons, soumis à nos lois" (Arcabonne et Arcalaüs)"
PERFORMER "Christophe Rousset, Les Talens Lyriques, Chœur de Chambre de Namur, Ingrid Perruche and Edwin Crossley-Mercer"
SONGWRITER "Jean-Baptiste Lully"
ISRC FROV61309450
INDEX 01 00:00:00
FILE "11 Christophe Rousset, Les Talens Lyriques And Chœur De Chambre De Namur - Acte IV, Second air acte III (reprise).flac" WAVE
TRACK 11 AUDIO
TITLE "Acte IV, Second air acte III (reprise)"
PERFORMER "Christophe Rousset, Les Talens Lyriques And Chœur De Chambre De Namur"
SONGWRITER "Jean-Baptiste Lully"
ISRC FROV61309451
INDEX 01 00:00:00
FILE "12 Christophe Rousset, Les Talens Lyriques, Chœur de Chambre de Namur, Cyril Auvity and Bénédicte Tauran - Acte V, Scène 1, Prélude "Apollidon, par un pouvoir magique" (Amadis, Urgande).flac" WAVE
TRACK 12 AUDIO
TITLE "Acte V, Scène 1, Prélude "Apollidon, par un pouvoir magique" (Amadis, Urgande)"
PERFORMER "Christophe Rousset, Les Talens Lyriques, Chœur de Chambre de Namur, Cyril Auvity and Bénédicte Tauran"
SONGWRITER "Jean-Baptiste Lully"
ISRC FROV61309452
INDEX 01 00:00:00
FILE "13 Christophe Rousset, Les Talens Lyriques, Chœur De Chambre De Namur, Cyril Auvity And Judith Van Wanroij - Acte V, Scène 2, Fermez-vous pour jamais, mes yeux, mes tristes yeux (Amadis, Oriane).flac" WAVE
TRACK 13 AUDIO
TITLE "Acte V, Scène 2, Fermez-vous pour jamais, mes yeux, mes tristes yeux (Amadis, Oriane)"
PERFORMER "Christophe Rousset, Les Talens Lyriques, Chœur De Chambre De Namur, Cyril Auvity And Judith Van Wanroij"
SONGWRITER "Jean-Baptiste Lully"
ISRC FROV61309453
INDEX 01 00:00:00
FILE "14 Christophe Rousset, Les Talens Lyriques, Chœur de Chambre de Namur, Cyril Auvity, Judith van Wanroij and Bénédicte Tauran - Acte V, Scène 3, Enfin, vos cœurs sont réunis, (Amadis, Oriane, Urgande).flac" WAVE
TRACK 14 AUDIO
TITLE "Acte V, Scène 3, Enfin, vos cœurs sont réunis, (Amadis, Oriane, Urgande)"
PERFORMER "Christophe Rousset, Les Talens Lyriques, Chœur de Chambre de Namur, Cyril Auvity, Judith van Wanroij and Bénédicte Tauran"
SONGWRITER "Jean-Baptiste Lully"
ISRC FROV61309454
INDEX 01 00:00:00
FILE "15 Christophe Rousset, Les Talens Lyriques, Chœur de Chambre de Namur, Benoit Arnould, Hasnaa Bennani, Cyril Auvity, Judith van Wanroij and Bénédicte Tauran - Acte V, Scène 4, Symphonie "Il est temps de vous arrêter" (Florestan, Corisande,.flac" WAVE
TRACK 15 AUDIO
TITLE "Acte V, Scène 4, Symphonie "Il est temps de vous arrêter" (Florestan, Corisande, Amadis, Oriande, Urgande)"
PERFORMER "Christophe Rousset, Les Talens Lyriques, Chœur de Chambre de Namur, Benoit Arnould, Hasnaa Bennani, Cyril Auvity, Judith van Wanroij and Bénédicte Tauran"
SONGWRITER "Jean-Baptiste Lully"
ISRC FROV61309455
INDEX 01 00:00:00
FILE "16 Christophe Rousset, Les Talens Lyriques, Chœur de Chambre de Namur and Caroline Weynants - Acte V, Scène 5, Prélude "Fidèles cœurs, votre constance" (Une héroïne).flac" WAVE
TRACK 16 AUDIO
TITLE "Acte V, Scène 5, Prélude "Fidèles cœurs, votre constance" (Une héroïne)"
PERFORMER "Christophe Rousset, Les Talens Lyriques, Chœur de Chambre de Namur and Caroline Weynants"
SONGWRITER "Jean-Baptiste Lully"
ISRC FROV61309456
INDEX 01 00:00:00
FILE "17 Christophe Rousset, Les Talens Lyriques And Chœur De Chambre De Namur - Acte V, Chaconne.flac" WAVE
TRACK 17 AUDIO
TITLE "Acte V, Chaconne"
PERFORMER "Christophe Rousset, Les Talens Lyriques And Chœur De Chambre De Namur"
SONGWRITER "Jean-Baptiste Lully"
ISRC FROV61309457
INDEX 01 00:00:00
FILE "18 Christophe Rousset, Les Talens Lyriques And Chœur De Chambre De Namur - Acte V, Chantons tous, en ce jour (Grand chœur).flac" WAVE
TRACK 18 AUDIO
TITLE "Acte V, Chantons tous, en ce jour (Grand chœur)"
PERFORMER "Christophe Rousset, Les Talens Lyriques And Chœur De Chambre De Namur"
SONGWRITER "Jean-Baptiste Lully"
ISRC FROV61309458
INDEX 01 00:00:00



Показать сообщения:    

Текущее время: 10-Дек 17:39

Часовой пояс: UTC + 3


Вы не можете начинать темы
Вы не можете отвечать на сообщения
Вы не можете редактировать свои сообщения
Вы не можете удалять свои сообщения
Вы не можете голосовать в опросах
Вы не можете прикреплять файлы к сообщениям
Вы не можете скачивать файлы