(Baroque, Classical) Musique a Versailles au temps du roi-soleil (Lully, Charpentier, de Lalande, Couperin, Marais) - 1994, FLAC (tracks+.cue) lossless


 

[Цитировать]

Musique a Versailles au temps du roi-soleil
Marc-Antoine Charpentier
Jean-Baptiste Lully
Francois Couperin
Marin Marais


Жанр: Baroque
Страна-производитель диска: Hollande
Год издания диска: 1994
Издатель (лейбл): EMI France
Номер по каталогу: 5681072
Дата записи: 1958-1984
Аудиокодек: FLAC
Тип рипа: tracks+.cue
Битрейт аудио: lossless
Продолжительность: 2:25:50
Источник: собственный рип
Наличие сканов в содержимом раздачи: да
Исполнители:
Диск 1 (CD 1)
1-2 Edward H. Tarr, Robert Bodenröder, Walter Holy (trompet), Gunther Höller (fluit), Helmut Hucke (oboe), Fritz Lehan (dirigent), Consortium Musicum
3-4 Ensemble de hautbois et tambours Michel Piguet
5 Maurice André, Bernard Soustrot, Guy Touvron (trompet), Jean-Pierre Wallez (dirigent), Ensemble Orchestral de Paris
6-12 Raymond Amade (tenor), Antoine Geoffroy-Dechaume (clavecin), André Jouve (dirigent), Orchestre des Concerts Français
13-14 Jean Giraudeau (tenor), Jacques Pruvost (bariton), Louis Noguéra (bas), Louis Martini (dirigent)
15 Roger Blanchard (dirigent), Ensemble Vocal Roger Blanchard, Orchestre de la Société des Concerts du Conservatoire
Диск 2 (CD 2)
1-2 Felicity Lott, Eiddwen Harrhy (soprano), Charles Brett (countertenor), Ian Partridge (tenor), Stephen Roberts (bas), Philip Ledger (dirigent), Choir of King's College Cambridge, Academy of St. Martin-in-the-Fields
3 April Cantelo, Helen Gelmar (soprano), James Bowman (countertenor), Ian Partridge (tenor), Christopher Keyte (bas), David Willcocks (dirigent), Choir of King's College Cambridge, English Chamber Orchestra
4 Roger Blanchard (dirigent), Ensemble Vocal et Instrumental
5 Gaston Roussel (dirigent), Orchestre de la Société des Concerts du Conservatoire
6 Maurice Duruflé (orgel)
7 Myriam Eichberger (fluit), Franz Friedrich Eichberger (clavecin), Jutta Kagerer (cello)
8-10 Aimée Van de Wiele (clavecin)
11-19 Louis Auriacombe (dirigent), Orchestre de Chambre de Toulouse
20-25 Ruggero Gerlin, Robert Veyron-Lacroix (clavecins)
26 Jean Lamy (viola da gamba), Marcelle Charbonnier (clvecin), Maurice Jacquemont (recitant)

ТреклистCD1

Marc-Antoine Charpentier
1. Air de trompettes Nr. 1
2. Air de trompettes Nr. 2 (Marche de triomphe)
Jean-Baptiste Lully
3. Marche des Mousquetaires
4. Marche du Régiment du Roy
Michel-Richard de Lalande
5. Caprice Nr. 1 (ou Caprice de Villers-Cotterets)
Jean-Baptiste Lully
6. Ouvertüre
7. Plus j'observe ces lieux (Air de Renaud)
8. Bois épais, redouble ton ombre (Air d'Amadis)
9. Menuet
Marc-Antoine Charpentier
10. Loure et canaries
11. Passepieds
12. Passacaille
13. Trio des grotesques
14. Trio des rieurs
Jean-Baptiste Lully
15. Plaude laetare Gallia (Motette)

CD2

Marc-Antoine Charpentier
1. Prélude (Marche de triomphe)
2. In te, Domine, speravi
3. Kyrie
4. Quam pulchra es (Motette)
5. Weihnachtssinfonie
François (le grand) Couperin
6. Offertoire sur les grands-jeux
7. Le rossignol-en-amour (für Flöte, Violoncello und Cembalo bearb.)
8. Les barricades mystérieuses (Schranken)
9. Les Ombres errantes
10. Le Tic-toc-choc ou Les Maillotins
11. Lulli aux Champs Elisés: Concertant avec les ombres liriques
12. Air pour les mesures
13. Vol de Mercure aux Champs Elisés, pour avertir qu'Appolon y va descendre
14. Descente d'Apollon: qui vient offrir son Violon à Lulli; et sa place au Parnasse
15. Rumeur souteraine: Causée par les auteurs contemporains de Lulli
16. Plaintes des mêmes
17. Enlèvement de Lulli au Parnasse
18. Accueil entre-Doux, et Agard, fait à Lulli par Corelli, et par les Muses italiénnes
19. Remerciement de Lulli à Apollon
20. Prélude
21. Allemande
22. Sarabande
23. Gavotte
24. Gigue
25. Menuet en Trio
Marin Marais
26. Tableau de l'opération de la Taille (für Viola da gamba, Cembalo und Sprecher)

Лог создания рипаCD1

X Lossless Decoder version 20141129 (148.1)
XLD extraction logfile from 2015-11-21 21:21:55 +0200
Различные исполнители / Musique à Versailles au temps du Roi-Soleil
Used drive : PIONEER DVD-RW DVRTD11RS (revision 1.01)Media type : Pressed CD
Ripper mode : XLD Secure RipperDisable audio cache : OK for the drive with a cache less than 1375KiBMake use of C2 pointers : NORead offset correction : 6Max retry count : 20Gap status : Analyzed, Appended
TOC of the extracted CD Track | Start | Length | Start sector | End sector --------------------------------------------------------- 1 | 00:00:00 | 02:34:22 | 0 | 11571 2 | 02:34:22 | 03:23:25 | 11572 | 26821 3 | 05:57:47 | 05:00:60 | 26822 | 49381 4 | 10:58:32 | 01:53:00 | 49382 | 57856 5 | 12:51:32 | 16:12:35 | 57857 | 130791 6 | 29:03:67 | 02:12:68 | 130792 | 140759 7 | 31:16:60 | 03:09:35 | 140760 | 154969 8 | 34:26:20 | 02:06:45 | 154970 | 164464 9 | 36:32:65 | 00:40:12 | 164465 | 167476 10 | 37:13:02 | 03:00:53 | 167477 | 181029 11 | 40:13:55 | 01:47:00 | 181030 | 189054 12 | 42:00:55 | 03:48:52 | 189055 | 206206 13 | 45:49:32 | 10:10:00 | 206207 | 251956 14 | 55:59:32 | 06:19:65 | 251957 | 280446 15 | 62:19:22 | 12:20:00 | 280447 | 335946
AccurateRip Summary (DiscID: 0023d6c4-0199039b-d3117f0f) Track 01 : OK (v2, confidence 2/2) Track 02 : OK (v2, confidence 2/2) Track 03 : OK (v2, confidence 2/2) Track 04 : OK (v2, confidence 2/2) Track 05 : NG (total 2 submissions) Track 06 : OK (v2, confidence 2/2) Track 07 : OK (v2, confidence 2/2) Track 08 : OK (v2, confidence 2/2) Track 09 : OK (v2, confidence 2/2) Track 10 : OK (v2, confidence 2/2) Track 11 : OK (v2, confidence 2/2) Track 12 : OK (v2, confidence 2/2) Track 13 : OK (v2, confidence 2/2) Track 14 : OK (v2, confidence 2/2) Track 15 : OK (v2, confidence 2/2) ->14 tracks accurately ripped, 1 track not
All Tracks Album gain : -0.83 dB Peak : 0.981018 Statistics Read error : 0 Jitter error (maybe fixed) : 0 Retry sector count : 0 Damaged sector count : 0
Track 01 Filename : /Users/User/Music/iTunes/XLD files/01 - Marche De Triomphe.flac Pre-gap length : 00:02:00
Track gain : 1.03 dB Peak : 0.609894 CRC32 hash (test run) : 5C70B217 CRC32 hash : 5C70B217 CRC32 hash (skip zero) : 91E885CB AccurateRip v1 signature : D658CB3E AccurateRip v2 signature : 7E57FA34 ->Accurately ripped (v2, confidence 2/2) Statistics Read error : 0 Jitter error (maybe fixed) : 0 Retry sector count : 0 Damaged sector count : 0
Track 02 Filename : /Users/User/Music/iTunes/XLD files/02 - Second air de trompette.flac Pre-gap length : 00:01:22
Track gain : 0.16 dB Peak : 0.587036 CRC32 hash (test run) : 003E1748 CRC32 hash : 003E1748 CRC32 hash (skip zero) : AE34A4A3 AccurateRip v1 signature : 616C20AB AccurateRip v2 signature : 352E30A6 ->Accurately ripped (v2, confidence 2/2) Statistics Read error : 0 Jitter error (maybe fixed) : 0 Retry sector count : 0 Damaged sector count : 0
Track 03 Filename : /Users/User/Music/iTunes/XLD files/03 - Marche des mousquetaires.flac Pre-gap length : 00:02:67
Track gain : -0.73 dB Peak : 0.604858 CRC32 hash (test run) : 7F20DF77 CRC32 hash : 7F20DF77 CRC32 hash (skip zero) : D727889E AccurateRip v1 signature : 69507272 AccurateRip v2 signature : 009C13A4 ->Accurately ripped (v2, confidence 2/2) Statistics Read error : 0 Jitter error (maybe fixed) : 0 Retry sector count : 0 Damaged sector count : 0
Track 04 Filename : /Users/User/Music/iTunes/XLD files/04 - Marche du régiment du Roy.flac
Track gain : -3.41 dB Peak : 0.829529 CRC32 hash (test run) : BC2304BB CRC32 hash : BC2304BB CRC32 hash (skip zero) : D53FE72D AccurateRip v1 signature : 7819002F AccurateRip v2 signature : 9BC5B5A9 ->Accurately ripped (v2, confidence 2/2) Statistics Read error : 0 Jitter error (maybe fixed) : 0 Retry sector count : 0 Damaged sector count : 0
Track 05 Filename : /Users/User/Music/iTunes/XLD files/05 - Simphonies pour les soupers du roy.flac
Track gain : -0.99 dB Peak : 0.980865 CRC32 hash (test run) : 096A1EE2 CRC32 hash : 096A1EE2 CRC32 hash (skip zero) : 828771BB AccurateRip v1 signature : F6CCA10C AccurateRip v2 signature : CD50E0AF ->Rip may not be accurate (total 2 submissions). Statistics Read error : 0 Jitter error (maybe fixed) : 0 Retry sector count : 0 Damaged sector count : 0
Track 06 Filename : /Users/User/Music/iTunes/XLD files/06 - Ouverture d'Isis.flac Pre-gap length : 00:02:62
Track gain : -0.76 dB Peak : 0.604218 CRC32 hash (test run) : 14BDB8D7 CRC32 hash : 14BDB8D7 CRC32 hash (skip zero) : 85FFB1C3 AccurateRip v1 signature : 494F93C4 AccurateRip v2 signature : 8CDC1027 ->Accurately ripped (v2, confidence 2/2) Statistics Read error : 0 Jitter error (maybe fixed) : 0 Retry sector count : 0 Damaged sector count : 0
Track 07 Filename : /Users/User/Music/iTunes/XLD files/07 - Armide - Air de Renaud: "Plus j'observe ces lieux".flac Pre-gap length : 00:03:70
Track gain : 0.76 dB Peak : 0.652527 CRC32 hash (test run) : EFEC0CB2 CRC32 hash : EFEC0CB2 CRC32 hash (skip zero) : 28869473 AccurateRip v1 signature : E1F47047 AccurateRip v2 signature : 41EB417B ->Accurately ripped (v2, confidence 2/2) Statistics Read error : 0 Jitter error (maybe fixed) : 0 Retry sector count : 0 Damaged sector count : 0
Track 08 Filename : /Users/User/Music/iTunes/XLD files/08 - Amadis - Air d'Amadis: "Bois épais, redouble ton ombre".flac Pre-gap length : 00:02:60
Track gain : -2.89 dB Peak : 0.961334 CRC32 hash (test run) : B8EA1CD6 CRC32 hash : B8EA1CD6 CRC32 hash (skip zero) : BFEA68A7 AccurateRip v1 signature : 16ECCC11 AccurateRip v2 signature : A7D7B895 ->Accurately ripped (v2, confidence 2/2) Statistics Read error : 0 Jitter error (maybe fixed) : 0 Retry sector count : 0 Damaged sector count : 0
Track 09 Filename : /Users/User/Music/iTunes/XLD files/09 - Menuet du "Bourgeois gentilhomme".flac Pre-gap length : 00:02:00
Track gain : 3.04 dB Peak : 0.490479 CRC32 hash (test run) : 10F5ECA5 CRC32 hash : 10F5ECA5 CRC32 hash (skip zero) : 7907195F AccurateRip v1 signature : 6AD911CA AccurateRip v2 signature : 034EEC13 ->Accurately ripped (v2, confidence 2/2) Statistics Read error : 0 Jitter error (maybe fixed) : 0 Retry sector count : 0 Damaged sector count : 0
Track 10 Filename : /Users/User/Music/iTunes/XLD files/10 - Médée, suite de danses - Loure et canaries.flac Pre-gap length : 00:03:20
Track gain : -0.16 dB Peak : 0.699371 CRC32 hash (test run) : 9F961539 CRC32 hash : 9F961539 CRC32 hash (skip zero) : 63C281DB AccurateRip v1 signature : 405E1847 AccurateRip v2 signature : BFD2F81B ->Accurately ripped (v2, confidence 2/2) Statistics Read error : 0 Jitter error (maybe fixed) : 0 Retry sector count : 0 Damaged sector count : 0
Track 11 Filename : /Users/User/Music/iTunes/XLD files/11 - Médée, suite de danses - Passepieds.flac Pre-gap length : 00:02:03
Track gain : 2.67 dB Peak : 0.437256 CRC32 hash (test run) : 790FB367 CRC32 hash : 790FB367 CRC32 hash (skip zero) : 631CF4D0 AccurateRip v1 signature : ABEB4A93 AccurateRip v2 signature : 7AC89765 ->Accurately ripped (v2, confidence 2/2) Statistics Read error : 0 Jitter error (maybe fixed) : 0 Retry sector count : 0 Damaged sector count : 0
Track 12 Filename : /Users/User/Music/iTunes/XLD files/12 - Médée, suite de danses - Passacaille.flac Pre-gap length : 00:01:63
Track gain : 2.42 dB Peak : 0.594727 CRC32 hash (test run) : C2198470 CRC32 hash : C2198470 CRC32 hash (skip zero) : 7978453A AccurateRip v1 signature : B8D01B1A AccurateRip v2 signature : ECA1E8EE ->Accurately ripped (v2, confidence 2/2) Statistics Read error : 0 Jitter error (maybe fixed) : 0 Retry sector count : 0 Damaged sector count : 0
Track 13 Filename : /Users/User/Music/iTunes/XLD files/13 - La Comtesse d'Escarbagnas: Trio de grotesques.flac Pre-gap length : 00:03:27
Track gain : -0.46 dB Peak : 0.761810 CRC32 hash (test run) : D55F0ADC CRC32 hash : D55F0ADC CRC32 hash (skip zero) : 6F6C398F AccurateRip v1 signature : 9FF1F923 AccurateRip v2 signature : D79136DA ->Accurately ripped (v2, confidence 2/2) Statistics Read error : 0 Jitter error (maybe fixed) : 0 Retry sector count : 0 Damaged sector count : 0
Track 14 Filename : /Users/User/Music/iTunes/XLD files/14 - Les Fous divertissants: Trio de rieurs.flac Pre-gap length : 00:03:15
Track gain : -2.05 dB Peak : 0.981018 CRC32 hash (test run) : F301E782 CRC32 hash : F301E782 CRC32 hash (skip zero) : 7D8321E9 AccurateRip v1 signature : F9A2AD63 AccurateRip v2 signature : 9626D529 ->Accurately ripped (v2, confidence 2/2) Statistics Read error : 0 Jitter error (maybe fixed) : 0 Retry sector count : 0 Damaged sector count : 0
Track 15 Filename : /Users/User/Music/iTunes/XLD files/15 - Plaude laetare Gallia.flac Pre-gap length : 00:03:25
Track gain : -0.69 dB Peak : 0.671844 CRC32 hash (test run) : D3CC3651 CRC32 hash : D3CC3651 CRC32 hash (skip zero) : 994D7978 AccurateRip v1 signature : 70D4538C AccurateRip v2 signature : BA0C0A06 ->Accurately ripped (v2, confidence 2/2) Statistics Read error : 0 Jitter error (maybe fixed) : 0 Retry sector count : 0 Damaged sector count : 0
No errors occurred
End of status report
-----BEGIN XLD SIGNATURE-----ZgkKbUccNNzg.6c0_oA.ozzZ7BH_5FWIoCqecyhcirUQ.og6x7hiZ2fVrLMTLq8D1NN0ldgq3nEkwy0jhb7dc3IU8tjHodEOxSE6Fwq-----END XLD SIGNATURE-----

CD2

X Lossless Decoder version 20141129 (148.1)
XLD extraction logfile from 2015-11-21 22:00:26 +0200
Различные исполнители / Musique A Versailles Au Temps Du Roi Soleil
Used drive : PIONEER DVD-RW DVRTD11RS (revision 1.01)Media type : Pressed CD
Ripper mode : XLD Secure RipperDisable audio cache : OK for the drive with a cache less than 1375KiBMake use of C2 pointers : NORead offset correction : 6Max retry count : 20Gap status : Analyzed, Appended
TOC of the extracted CD Track | Start | Length | Start sector | End sector --------------------------------------------------------- 1 | 00:00:32 | 01:46:55 | 32 | 8036 2 | 01:47:12 | 03:21:30 | 8037 | 23141 3 | 05:08:42 | 06:27:63 | 23142 | 52229 4 | 11:36:30 | 04:37:20 | 52230 | 73024 5 | 16:13:50 | 06:27:62 | 73025 | 102111 6 | 22:41:37 | 06:04:20 | 102112 | 129431 7 | 28:45:57 | 04:25:50 | 129432 | 149356 8 | 33:11:32 | 03:01:65 | 149357 | 162996 9 | 36:13:22 | 02:20:10 | 162997 | 173506 10 | 38:33:32 | 02:13:55 | 173507 | 183536 11 | 40:47:12 | 02:19:40 | 183537 | 194001 12 | 43:06:52 | 01:39:58 | 194002 | 201484 13 | 44:46:35 | 00:29:62 | 201485 | 203721 14 | 45:16:22 | 01:48:60 | 203722 | 211881 15 | 47:05:07 | 00:38:10 | 211882 | 214741 16 | 47:43:17 | 02:23:45 | 214742 | 225511 17 | 50:06:62 | 00:38:25 | 225512 | 228386 18 | 50:45:12 | 02:51:13 | 228387 | 241224 19 | 53:36:25 | 02:48:65 | 241225 | 253889 20 | 56:25:15 | 02:41:50 | 253890 | 266014 21 | 59:06:65 | 01:50:00 | 266015 | 274264 22 | 60:56:65 | 01:59:37 | 274265 | 283226 23 | 62:56:27 | 01:07:58 | 283227 | 288309 24 | 64:04:10 | 01:34:65 | 288310 | 295424 25 | 65:39:00 | 01:36:47 | 295425 | 302671 26 | 67:15:47 | 04:18:65 | 302672 | 322086
AccurateRip Summary (DiscID: 004d4640-055778b7-ba10c61a) Track 01 : OK (v2, confidence 3/3) Track 02 : OK (v2, confidence 3/3) Track 03 : OK (v2, confidence 3/3) Track 04 : OK (v2, confidence 3/3) Track 05 : OK (v2, confidence 3/3) Track 06 : OK (v2, confidence 3/3) Track 07 : OK (v2, confidence 3/3) Track 08 : OK (v2, confidence 3/3) Track 09 : OK (v2, confidence 3/3) Track 10 : OK (v2, confidence 3/3) Track 11 : OK (v2, confidence 3/3) Track 12 : OK (v2, confidence 3/3) Track 13 : OK (v2, confidence 3/3) Track 14 : OK (v2, confidence 3/3) Track 15 : OK (v2, confidence 3/3) Track 16 : OK (v2, confidence 2/2) Track 17 : OK (v2, confidence 2/2) Track 18 : OK (v2, confidence 2/2) Track 19 : OK (v2, confidence 2/2) Track 20 : OK (v2, confidence 2/2) Track 21 : OK (v2, confidence 2/2) Track 22 : OK (v2, confidence 2/2) Track 23 : OK (v2, confidence 2/2) Track 24 : OK (v2, confidence 2/2) Track 25 : OK (v2, confidence 2/2) Track 26 : OK (v2, confidence 2/2) ->All tracks accurately ripped.
All Tracks Album gain : -1.81 dB Peak : 0.992157 Statistics Read error : 0 Jitter error (maybe fixed) : 0 Retry sector count : 0 Damaged sector count : 0
Track 01 Filename : /Users/User/Music/iTunes/XLD files/01 - Charpentier: Te Deum, H 146.flac Pre-gap length : 00:02:32
Track gain : -3.37 dB Peak : 0.986877 CRC32 hash (test run) : F53D97A3 CRC32 hash : F53D97A3 CRC32 hash (skip zero) : D9AA0AAF AccurateRip v1 signature : 136133AA AccurateRip v2 signature : 78D56477 ->Accurately ripped (v2, confidence 3/3) Statistics Read error : 0 Jitter error (maybe fixed) : 0 Retry sector count : 0 Damaged sector count : 0
Track 02 Filename : /Users/User/Music/iTunes/XLD files/02 - Te Deum (extraits):In te Dominum speravi.flac Pre-gap length : 00:02:32
Track gain : -4.86 dB Peak : 0.992157 CRC32 hash (test run) : 99B70CA5 CRC32 hash : 99B70CA5 CRC32 hash (skip zero) : 703652EA AccurateRip v1 signature : A37CF025 AccurateRip v2 signature : 370DBD78 ->Accurately ripped (v2, confidence 3/3) Statistics Read error : 0 Jitter error (maybe fixed) : 0 Retry sector count : 0 Damaged sector count : 0
Track 03 Filename : /Users/User/Music/iTunes/XLD files/03 - Charpentier (MA): Messe De Minuit Pour Noel, H 9 - Kyrie.flac Pre-gap length : 00:02:05
Track gain : 2.20 dB Peak : 0.472839 CRC32 hash (test run) : 476E643F CRC32 hash : 476E643F CRC32 hash (skip zero) : CBC0600F AccurateRip v1 signature : 70572975 AccurateRip v2 signature : 859A667C ->Accurately ripped (v2, confidence 3/3) Statistics Read error : 0 Jitter error (maybe fixed) : 0 Retry sector count : 0 Damaged sector count : 0
Track 04 Filename : /Users/User/Music/iTunes/XLD files/04 - Quam Pulchra es.flac Pre-gap length : 00:02:43
Track gain : 2.95 dB Peak : 0.559601 CRC32 hash (test run) : FD999E53 CRC32 hash : FD999E53 CRC32 hash (skip zero) : 9B7790C8 AccurateRip v1 signature : 41A83BBB AccurateRip v2 signature : 4868966A ->Accurately ripped (v2, confidence 3/3) Statistics Read error : 0 Jitter error (maybe fixed) : 0 Retry sector count : 0 Damaged sector count : 0
Track 05 Filename : /Users/User/Music/iTunes/XLD files/05 - 1e Simphonie de Noels.flac Pre-gap length : 00:01:48
Track gain : 0.93 dB Peak : 0.495819 CRC32 hash (test run) : CB6B8602 CRC32 hash : CB6B8602 CRC32 hash (skip zero) : F1632FBE AccurateRip v1 signature : 54739690 AccurateRip v2 signature : 2727AD5C ->Accurately ripped (v2, confidence 3/3) Statistics Read error : 0 Jitter error (maybe fixed) : 0 Retry sector count : 0 Damaged sector count : 0
Track 06 Filename : /Users/User/Music/iTunes/XLD files/06 - Offertoire Sur Les Grands-Jeux.flac Pre-gap length : 00:02:12
Track gain : -0.84 dB Peak : 0.821991 CRC32 hash (test run) : 1BCAB750 CRC32 hash : 1BCAB750 CRC32 hash (skip zero) : A97C1B17 AccurateRip v1 signature : 11681447 AccurateRip v2 signature : CDE979B2 ->Accurately ripped (v2, confidence 3/3) Statistics Read error : 0 Jitter error (maybe fixed) : 0 Retry sector count : 0 Damaged sector count : 0
Track 07 Filename : /Users/User/Music/iTunes/XLD files/07 - Le Rossignol Est En Amour.flac Pre-gap length : 00:02:05
Track gain : -1.96 dB Peak : 0.513733 CRC32 hash (test run) : F1016F97 CRC32 hash : F1016F97 CRC32 hash (skip zero) : BF728DA0 AccurateRip v1 signature : F3EB0101 AccurateRip v2 signature : C83BB1CC ->Accurately ripped (v2, confidence 3/3) Statistics Read error : 0 Jitter error (maybe fixed) : 0 Retry sector count : 0 Damaged sector count : 0
Track 08 Filename : /Users/User/Music/iTunes/XLD files/08 - 3 Pieces De Clavecin: Les barricades mysterieuses.flac Pre-gap length : 00:02:25
Track gain : 5.03 dB Peak : 0.349121 CRC32 hash (test run) : 197002C3 CRC32 hash : 197002C3 CRC32 hash (skip zero) : A1AC2BAB AccurateRip v1 signature : 8AD5377F AccurateRip v2 signature : FB204A21 ->Accurately ripped (v2, confidence 3/3) Statistics Read error : 0 Jitter error (maybe fixed) : 0 Retry sector count : 0 Damaged sector count : 0
Track 09 Filename : /Users/User/Music/iTunes/XLD files/09 - 3 Pieces De Clavecin: Les ombres errantes.flac Pre-gap length : 00:02:05
Track gain : 2.82 dB Peak : 0.497986 CRC32 hash (test run) : F20CBC05 CRC32 hash : F20CBC05 CRC32 hash (skip zero) : 92C46C06 AccurateRip v1 signature : 528E5785 AccurateRip v2 signature : 0CA10AA4 ->Accurately ripped (v2, confidence 3/3) Statistics Read error : 0 Jitter error (maybe fixed) : 0 Retry sector count : 0 Damaged sector count : 0
Track 10 Filename : /Users/User/Music/iTunes/XLD files/10 - 3 Pieces De Clavecin: Le tic-toc-choc, ou les maillotons.flac Pre-gap length : 00:02:60
Track gain : 6.01 dB Peak : 0.277283 CRC32 hash (test run) : FE9031DB CRC32 hash : FE9031DB CRC32 hash (skip zero) : 6BE46F2D AccurateRip v1 signature : 6762900B AccurateRip v2 signature : 577CC510 ->Accurately ripped (v2, confidence 3/3) Statistics Read error : 0 Jitter error (maybe fixed) : 0 Retry sector count : 0 Damaged sector count : 0
Track 11 Filename : /Users/User/Music/iTunes/XLD files/11 - L'Apotheose De Lulli: Lulli aux Champs Elysees concertant avec les ombres lyriques.flac Pre-gap length : 00:02:32
Track gain : -4.81 dB Peak : 0.962524 CRC32 hash (test run) : 7E9BE951 CRC32 hash : 7E9BE951 CRC32 hash (skip zero) : 441C42DB AccurateRip v1 signature : 37E8138E AccurateRip v2 signature : 3EE33727 ->Accurately ripped (v2, confidence 3/3) Statistics Read error : 0 Jitter error (maybe fixed) : 0 Retry sector count : 0 Damaged sector count : 0
Track 12 Filename : /Users/User/Music/iTunes/XLD files/12 - L'Apotheose De Lulli: Air pour les mesures.flac
Track gain : -3.22 dB Peak : 0.792358 CRC32 hash (test run) : 0938FF43 CRC32 hash : 0938FF43 CRC32 hash (skip zero) : EB6E3705 AccurateRip v1 signature : F3BF6EE3 AccurateRip v2 signature : 7DEDACEC ->Accurately ripped (v2, confidence 3/3) Statistics Read error : 0 Jitter error (maybe fixed) : 0 Retry sector count : 0 Damaged sector count : 0
Track 13 Filename : /Users/User/Music/iTunes/XLD files/13 - L'Apotheose De Lulli: Vol de Mercure aux Chaps Elysees pour avertir qu'Apollon y va descendre.flac
Track gain : -4.13 dB Peak : 0.720001 CRC32 hash (test run) : BB65B808 CRC32 hash : BB65B808 CRC32 hash (skip zero) : DAE36091 AccurateRip v1 signature : 7CE0E5A9 AccurateRip v2 signature : BE064ECB ->Accurately ripped (v2, confidence 3/3) Statistics Read error : 0 Jitter error (maybe fixed) : 0 Retry sector count : 0 Damaged sector count : 0
Track 14 Filename : /Users/User/Music/iTunes/XLD files/14 - L'Apotheose De Lulli: Descente d'Apollon qui vient offrir son violon a Lulli et se place au Parnasse.flac
Track gain : -5.21 dB Peak : 0.886444 CRC32 hash (test run) : 43819D7E CRC32 hash : 43819D7E CRC32 hash (skip zero) : 67411FAF AccurateRip v1 signature : EED6B6E4 AccurateRip v2 signature : 8FEF4E1A ->Accurately ripped (v2, confidence 3/3) Statistics Read error : 0 Jitter error (maybe fixed) : 0 Retry sector count : 0 Damaged sector count : 0
Track 15 Filename : /Users/User/Music/iTunes/XLD files/15 - L'Apotheose De Lulli: Rumeurs souterraines causees par les auteurs contemporains de Lulli.flac
Track gain : -3.99 dB Peak : 0.952911 CRC32 hash (test run) : EDE18610 CRC32 hash : EDE18610 CRC32 hash (skip zero) : A3A909E1 AccurateRip v1 signature : C4799A97 AccurateRip v2 signature : EED6A784 ->Accurately ripped (v2, confidence 3/3) Statistics Read error : 0 Jitter error (maybe fixed) : 0 Retry sector count : 0 Damaged sector count : 0
Track 16 Filename : /Users/User/Music/iTunes/XLD files/16 - L'Apotheose De Lulli: Plaintes des memes.flac
Track gain : 4.71 dB Peak : 0.320648 CRC32 hash (test run) : 8B96DB42 CRC32 hash : 8B96DB42 CRC32 hash (skip zero) : 2A258FD6 AccurateRip v1 signature : D9D146B4 AccurateRip v2 signature : 6FB85FF3 ->Accurately ripped (v2, confidence 2/2) Statistics Read error : 0 Jitter error (maybe fixed) : 0 Retry sector count : 0 Damaged sector count : 0
Track 17 Filename : /Users/User/Music/iTunes/XLD files/17 - L'Apotheose De Lulli: Enlevement de Lulli au Parnasse.flac
Track gain : -4.89 dB Peak : 0.799530 CRC32 hash (test run) : 2EF20852 CRC32 hash : 2EF20852 CRC32 hash (skip zero) : C53537A9 AccurateRip v1 signature : 01AD8D3F AccurateRip v2 signature : 74A8960E ->Accurately ripped (v2, confidence 2/2) Statistics Read error : 0 Jitter error (maybe fixed) : 0 Retry sector count : 0 Damaged sector count : 0
Track 18 Filename : /Users/User/Music/iTunes/XLD files/18 - L'Apotheose De Lulli: Accueil entre-doux et agard fait a Lulli par Corelli et les muses italiennes.flac
Track gain : -3.11 dB Peak : 0.794769 CRC32 hash (test run) : 92D8F05D CRC32 hash : 92D8F05D CRC32 hash (skip zero) : BD5CF160 AccurateRip v1 signature : 9CAF3774 AccurateRip v2 signature : 14A86FEC ->Accurately ripped (v2, confidence 2/2) Statistics Read error : 0 Jitter error (maybe fixed) : 0 Retry sector count : 0 Damaged sector count : 0
Track 19 Filename : /Users/User/Music/iTunes/XLD files/19 - L'Apotheose De Lulli: Remerciement de Lulli et Apollon.flac
Track gain : 1.28 dB Peak : 0.485626 CRC32 hash (test run) : 690FF114 CRC32 hash : 690FF114 CRC32 hash (skip zero) : A226A812 AccurateRip v1 signature : 5ECCD345 AccurateRip v2 signature : 3DD6875B ->Accurately ripped (v2, confidence 2/2) Statistics Read error : 0 Jitter error (maybe fixed) : 0 Retry sector count : 0 Damaged sector count : 0
Track 20 Filename : /Users/User/Music/iTunes/XLD files/20 - Premier concert royal: Prelude.flac Pre-gap length : 00:02:30
Track gain : 5.58 dB Peak : 0.382599 CRC32 hash (test run) : 3C7E707D CRC32 hash : 3C7E707D CRC32 hash (skip zero) : 398AD574 AccurateRip v1 signature : 8C982FCC AccurateRip v2 signature : B5BDE36A ->Accurately ripped (v2, confidence 2/2) Statistics Read error : 0 Jitter error (maybe fixed) : 0 Retry sector count : 0 Damaged sector count : 0
Track 21 Filename : /Users/User/Music/iTunes/XLD files/21 - Premier Concert Royal: Allemande.flac
Track gain : 4.79 dB Peak : 0.328278 CRC32 hash (test run) : 4CFE84BD CRC32 hash : 4CFE84BD CRC32 hash (skip zero) : 10EB8BBE AccurateRip v1 signature : 28DF1131 AccurateRip v2 signature : D16A492B ->Accurately ripped (v2, confidence 2/2) Statistics Read error : 0 Jitter error (maybe fixed) : 0 Retry sector count : 0 Damaged sector count : 0
Track 22 Filename : /Users/User/Music/iTunes/XLD files/22 - Premier Concert Royal: Sarabande.flac
Track gain : 7.44 dB Peak : 0.272217 CRC32 hash (test run) : 710F45EC CRC32 hash : 710F45EC CRC32 hash (skip zero) : 19D830E2 AccurateRip v1 signature : 4E8CDA01 AccurateRip v2 signature : 2CB3037A ->Accurately ripped (v2, confidence 2/2) Statistics Read error : 0 Jitter error (maybe fixed) : 0 Retry sector count : 0 Damaged sector count : 0
Track 23 Filename : /Users/User/Music/iTunes/XLD files/23 - Premier Concert Royal: Gavotte.flac
Track gain : 5.51 dB Peak : 0.328552 CRC32 hash (test run) : 949020C2 CRC32 hash : 949020C2 CRC32 hash (skip zero) : 5D3DFEAD AccurateRip v1 signature : F4DDC14A AccurateRip v2 signature : 0458DE2F ->Accurately ripped (v2, confidence 2/2) Statistics Read error : 0 Jitter error (maybe fixed) : 0 Retry sector count : 0 Damaged sector count : 0
Track 24 Filename : /Users/User/Music/iTunes/XLD files/24 - Premier Concert Royal: Gigue.flac
Track gain : 4.03 dB Peak : 0.416382 CRC32 hash (test run) : 35A2D091 CRC32 hash : 35A2D091 CRC32 hash (skip zero) : BEFDC1DC AccurateRip v1 signature : 2E090C4C AccurateRip v2 signature : 0E0C678D ->Accurately ripped (v2, confidence 2/2) Statistics Read error : 0 Jitter error (maybe fixed) : 0 Retry sector count : 0 Damaged sector count : 0
Track 25 Filename : /Users/User/Music/iTunes/XLD files/25 - Premier Concert Royal: Menuet en Trio.flac
Track gain : 7.68 dB Peak : 0.267029 CRC32 hash (test run) : F03C6B1A CRC32 hash : F03C6B1A CRC32 hash (skip zero) : 725188E0 AccurateRip v1 signature : 3E29FCAE AccurateRip v2 signature : C6CEDDB0 ->Accurately ripped (v2, confidence 2/2) Statistics Read error : 0 Jitter error (maybe fixed) : 0 Retry sector count : 0 Damaged sector count : 0
Track 26 Filename : /Users/User/Music/iTunes/XLD files/26 - Tableau De l'operation de la Taille.flac Pre-gap length : 00:04:45
Track gain : 4.02 dB Peak : 0.884247 CRC32 hash (test run) : 29833B99 CRC32 hash : 29833B99 CRC32 hash (skip zero) : 1B377C13 AccurateRip v1 signature : 0F95198F AccurateRip v2 signature : 62348138 ->Accurately ripped (v2, confidence 2/2) Statistics Read error : 0 Jitter error (maybe fixed) : 0 Retry sector count : 0 Damaged sector count : 0
No errors occurred
End of status report
-----BEGIN XLD SIGNATURE-----Y8tuDTu8A0DtqhZOSQTc13oIsiqEV3OnMJCWo_9GBVRSnmBG50VjQr.zz_NhOW2H3XZ.BCt1NhLiRBlruotEbItJvp0J6Pw.RpnspRe-----END XLD SIGNATURE-----

Содержание индексной карты (.CUE)CD1

TITLE "Musique à Versailles au temps du Roi-Soleil"REM GENRE "Classical"REM DATE "1994"REM DISCNUMBER 1REM TOTALDISCS 2REM DISCID D3117F0FREM REPLAYGAIN_ALBUM_GAIN -0.83 dBREM REPLAYGAIN_ALBUM_PEAK 0.981018REM COMPILATION TRUEFILE "01 - Marche De Triomphe.flac" WAVE TRACK 01 AUDIO TITLE "Marche De Triomphe" PERFORMER "Various Artists" SONGWRITER "Charpentier, Marc-Antoine (1643-1704)" REM REPLAYGAIN_TRACK_GAIN 1.03 dB REM REPLAYGAIN_TRACK_PEAK 0.609894 INDEX 01 00:00:00 TRACK 02 AUDIO TITLE "Second air de trompette" PERFORMER "Marc-Antoine Charpentier" SONGWRITER "Charpentier, Marc-Antoine (1643-1704)" REM REPLAYGAIN_TRACK_GAIN 0.16 dB REM REPLAYGAIN_TRACK_PEAK 0.587036 INDEX 00 02:33:00FILE "02 - Second air de trompette.flac" WAVE INDEX 01 00:00:00 TRACK 03 AUDIO TITLE "Marche des mousquetaires" PERFORMER "Jean-Baptiste Lully" SONGWRITER "Lully, Jean-Baptiste - (1632-1687)" REM REPLAYGAIN_TRACK_GAIN -0.73 dB REM REPLAYGAIN_TRACK_PEAK 0.604858 INDEX 00 03:20:33FILE "03 - Marche des mousquetaires.flac" WAVE INDEX 01 00:00:00FILE "04 - Marche du régiment du Roy.flac" WAVE TRACK 04 AUDIO TITLE "Marche du régiment du Roy" PERFORMER "Jean-Baptiste Lully" SONGWRITER "Lully, Jean-Baptiste - (1632-1687)" REM REPLAYGAIN_TRACK_GAIN -3.41 dB REM REPLAYGAIN_TRACK_PEAK 0.829529 INDEX 01 00:00:00FILE "05 - Simphonies pour les soupers du roy.flac" WAVE TRACK 05 AUDIO TITLE "Simphonies pour les soupers du roy" PERFORMER "Various Artists" SONGWRITER "Delalande, Michel Richard - (1657-1726)" REM REPLAYGAIN_TRACK_GAIN -0.99 dB REM REPLAYGAIN_TRACK_PEAK 0.980865 INDEX 01 00:00:00 TRACK 06 AUDIO TITLE "Ouverture d'Isis" PERFORMER "Jean-Baptiste Lully" SONGWRITER "Lully, Jean-Baptiste - (1632-1687)" REM REPLAYGAIN_TRACK_GAIN -0.76 dB REM REPLAYGAIN_TRACK_PEAK 0.604218 INDEX 00 16:09:48FILE "06 - Ouverture d'Isis.flac" WAVE INDEX 01 00:00:00 TRACK 07 AUDIO TITLE "Armide - Air de Renaud: "Plus j'observe ces lieux"" PERFORMER "Jean-Baptiste Lully" SONGWRITER "Lully, Jean-Baptiste - (1632-1687)" REM REPLAYGAIN_TRACK_GAIN 0.76 dB REM REPLAYGAIN_TRACK_PEAK 0.652527 INDEX 00 02:08:73FILE "07 - Armide - Air de Renaud: "Plus j'observe ces lieux".flac" WAVE INDEX 01 00:00:00 TRACK 08 AUDIO TITLE "Amadis - Air d'Amadis: "Bois épais, redouble ton ombre"" PERFORMER "Jean-Baptiste Lully" SONGWRITER "Lully, Jean-Baptiste - (1632-1687)" REM REPLAYGAIN_TRACK_GAIN -2.89 dB REM REPLAYGAIN_TRACK_PEAK 0.961334 INDEX 00 03:06:50FILE "08 - Amadis - Air d'Amadis: "Bois épais, redouble ton ombre".flac" WAVE INDEX 01 00:00:00 TRACK 09 AUDIO TITLE "Menuet du "Bourgeois gentilhomme"" PERFORMER "Jean-Baptiste Lully" SONGWRITER "Lully, Jean-Baptiste - (1632-1687)" REM REPLAYGAIN_TRACK_GAIN 3.04 dB REM REPLAYGAIN_TRACK_PEAK 0.490479 INDEX 00 02:04:45FILE "09 - Menuet du "Bourgeois gentilhomme".flac" WAVE INDEX 01 00:00:00 TRACK 10 AUDIO TITLE "Médée, suite de danses - Loure et canaries" PERFORMER "Marc-Antoine Charpentier" SONGWRITER "Charpentier, Marc-Antoine (1643-1704)" REM REPLAYGAIN_TRACK_GAIN -0.16 dB REM REPLAYGAIN_TRACK_PEAK 0.699371 INDEX 00 00:36:67FILE "10 - Médée, suite de danses - Loure et canaries.flac" WAVE INDEX 01 00:00:00 TRACK 11 AUDIO TITLE "Médée, suite de danses - Passepieds" PERFORMER "Marc-Antoine Charpentier" SONGWRITER "Charpentier, Marc-Antoine (1643-1704)" REM REPLAYGAIN_TRACK_GAIN 2.67 dB REM REPLAYGAIN_TRACK_PEAK 0.437256 INDEX 00 02:58:50FILE "11 - Médée, suite de danses - Passepieds.flac" WAVE INDEX 01 00:00:00 TRACK 12 AUDIO TITLE "Médée, suite de danses - Passacaille" PERFORMER "Marc-Antoine Charpentier" SONGWRITER "Charpentier, Marc-Antoine (1643-1704)" REM REPLAYGAIN_TRACK_GAIN 2.42 dB REM REPLAYGAIN_TRACK_PEAK 0.594727 INDEX 00 01:45:12FILE "12 - Médée, suite de danses - Passacaille.flac" WAVE INDEX 01 00:00:00 TRACK 13 AUDIO TITLE "La Comtesse d'Escarbagnas: Trio de grotesques" PERFORMER "Marc-Antoine Charpentier" SONGWRITER "Charpentier, Marc-Antoine (1643-1704)" REM REPLAYGAIN_TRACK_GAIN -0.46 dB REM REPLAYGAIN_TRACK_PEAK 0.761810 INDEX 00 03:45:25FILE "13 - La Comtesse d'Escarbagnas: Trio de grotesques.flac" WAVE INDEX 01 00:00:00 TRACK 14 AUDIO TITLE "Les Fous divertissants: Trio de rieurs" PERFORMER "Marc-Antoine Charpentier" SONGWRITER "Charpentier, Marc-Antoine (1643-1704)" REM REPLAYGAIN_TRACK_GAIN -2.05 dB REM REPLAYGAIN_TRACK_PEAK 0.981018 INDEX 00 10:06:60FILE "14 - Les Fous divertissants: Trio de rieurs.flac" WAVE INDEX 01 00:00:00 TRACK 15 AUDIO TITLE "Plaude laetare Gallia" PERFORMER "Jean-Baptiste Lully" SONGWRITER "Lully, Jean-Baptiste - (1632-1687)" REM REPLAYGAIN_TRACK_GAIN -0.69 dB REM REPLAYGAIN_TRACK_PEAK 0.671844 INDEX 00 06:16:40FILE "15 - Plaude laetare Gallia.flac" WAVE INDEX 01 00:00:00

CD2

TITLE "Musique A Versailles Au Temps Du Roi Soleil"REM GENRE "Classical"REM DATE "1994"REM DISCNUMBER 2REM TOTALDISCS 2REM DISCID BA10C61AREM REPLAYGAIN_ALBUM_GAIN -1.81 dBREM REPLAYGAIN_ALBUM_PEAK 0.992157REM COMPILATION TRUEFILE "01 - Charpentier: Te Deum, H 146.flac" WAVE TRACK 01 AUDIO TITLE "Charpentier: Te Deum, H 146" PERFORMER "Philip Ledger: Academy Of St. Martin In The Fields" SONGWRITER "Marc-Antoine Charpentier" REM REPLAYGAIN_TRACK_GAIN -3.37 dB REM REPLAYGAIN_TRACK_PEAK 0.986877 INDEX 00 00:00:00 INDEX 01 00:00:32 TRACK 02 AUDIO TITLE "Te Deum (extraits):In te Dominum speravi" PERFORMER "Marc-Antoine Charpentier" SONGWRITER "Marc-Antoine Charpentier" REM REPLAYGAIN_TRACK_GAIN -4.86 dB REM REPLAYGAIN_TRACK_PEAK 0.992157 INDEX 00 01:44:55FILE "02 - Te Deum (extraits):In te Dominum speravi.flac" WAVE INDEX 01 00:00:00 TRACK 03 AUDIO TITLE "Charpentier (MA): Messe De Minuit Pour Noel, H 9 - Kyrie" PERFORMER "David Willcocks: Choir Of King's College Cambridge, English Chamber Orchestra" SONGWRITER "Marc-Antoine Charpentier" REM REPLAYGAIN_TRACK_GAIN 2.20 dB REM REPLAYGAIN_TRACK_PEAK 0.472839 INDEX 00 03:19:25FILE "03 - Charpentier (MA): Messe De Minuit Pour Noel, H 9 - Kyrie.flac" WAVE INDEX 01 00:00:00 TRACK 04 AUDIO TITLE "Quam Pulchra es" PERFORMER "Marc-Antoine Charpentier" SONGWRITER "Marc-Antoine Charpentier" REM REPLAYGAIN_TRACK_GAIN 2.95 dB REM REPLAYGAIN_TRACK_PEAK 0.559601 INDEX 00 06:25:20FILE "04 - Quam Pulchra es.flac" WAVE INDEX 01 00:00:00 TRACK 05 AUDIO TITLE "1e Simphonie de Noels" PERFORMER "Michel-Richard De Lalande" SONGWRITER "Delalande, Michel Richard - (1657-1726)" REM REPLAYGAIN_TRACK_GAIN 0.93 dB REM REPLAYGAIN_TRACK_PEAK 0.495819 INDEX 00 04:35:47FILE "05 - 1e Simphonie de Noels.flac" WAVE INDEX 01 00:00:00 TRACK 06 AUDIO TITLE "Offertoire Sur Les Grands-Jeux" PERFORMER "François Couperin" SONGWRITER "Couperin, François (1668-1733)" REM REPLAYGAIN_TRACK_GAIN -0.84 dB REM REPLAYGAIN_TRACK_PEAK 0.821991 INDEX 00 06:25:50FILE "06 - Offertoire Sur Les Grands-Jeux.flac" WAVE INDEX 01 00:00:00 TRACK 07 AUDIO TITLE "Le Rossignol Est En Amour" PERFORMER "François Couperin" SONGWRITER "Couperin, François (1668-1733)" REM REPLAYGAIN_TRACK_GAIN -1.96 dB REM REPLAYGAIN_TRACK_PEAK 0.513733 INDEX 00 06:02:15FILE "07 - Le Rossignol Est En Amour.flac" WAVE INDEX 01 00:00:00 TRACK 08 AUDIO TITLE "3 Pieces De Clavecin: Les barricades mysterieuses" PERFORMER "François Couperin" SONGWRITER "Couperin, François (1668-1733)" REM REPLAYGAIN_TRACK_GAIN 5.03 dB REM REPLAYGAIN_TRACK_PEAK 0.349121 INDEX 00 04:23:25FILE "08 - 3 Pieces De Clavecin: Les barricades mysterieuses.flac" WAVE INDEX 01 00:00:00 TRACK 09 AUDIO TITLE "3 Pieces De Clavecin: Les ombres errantes" PERFORMER "François Couperin" SONGWRITER "Couperin, François (1668-1733)" REM REPLAYGAIN_TRACK_GAIN 2.82 dB REM REPLAYGAIN_TRACK_PEAK 0.497986 INDEX 00 02:59:60FILE "09 - 3 Pieces De Clavecin: Les ombres errantes.flac" WAVE INDEX 01 00:00:00 TRACK 10 AUDIO TITLE "3 Pieces De Clavecin: Le tic-toc-choc, ou les maillotons" PERFORMER "François Couperin" SONGWRITER "Couperin, François (1668-1733)" REM REPLAYGAIN_TRACK_GAIN 6.01 dB REM REPLAYGAIN_TRACK_PEAK 0.277283 INDEX 00 02:17:25FILE "10 - 3 Pieces De Clavecin: Le tic-toc-choc, ou les maillotons.flac" WAVE INDEX 01 00:00:00 TRACK 11 AUDIO TITLE "L'Apotheose De Lulli: Lulli aux Champs Elysees concertant avec les ombres lyriques" PERFORMER "François Couperin" SONGWRITER "Couperin, François (1668-1733)" REM REPLAYGAIN_TRACK_GAIN -4.81 dB REM REPLAYGAIN_TRACK_PEAK 0.962524 INDEX 00 02:11:23FILE "11 - L'Apotheose De Lulli: Lulli aux Champs Elysees concertant avec les ombres lyriques.flac" WAVE INDEX 01 00:00:00FILE "12 - L'Apotheose De Lulli: Air pour les mesures.flac" WAVE TRACK 12 AUDIO TITLE "L'Apotheose De Lulli: Air pour les mesures" PERFORMER "François Couperin" SONGWRITER "Couperin, François (1668-1733)" REM REPLAYGAIN_TRACK_GAIN -3.22 dB REM REPLAYGAIN_TRACK_PEAK 0.792358 INDEX 01 00:00:00FILE "13 - L'Apotheose De Lulli: Vol de Mercure aux Chaps Elysees pour avertir qu'Apollon y va descendre.flac" WAVE TRACK 13 AUDIO TITLE "L'Apotheose De Lulli: Vol de Mercure aux Chaps Elysees pour avertir qu'Apollon y va descendre" PERFORMER "François Couperin" SONGWRITER "Couperin, François (1668-1733)" REM REPLAYGAIN_TRACK_GAIN -4.13 dB REM REPLAYGAIN_TRACK_PEAK 0.720001 INDEX 01 00:00:00FILE "14 - L'Apotheose De Lulli: Descente d'Apollon qui vient offrir son violon a Lulli et se place au Parnasse.flac" WAVE TRACK 14 AUDIO TITLE "L'Apotheose De Lulli: Descente d'Apollon qui vient offrir son violon a Lulli et se place au Parnasse" PERFORMER "François Couperin" SONGWRITER "Couperin, François (1668-1733)" REM REPLAYGAIN_TRACK_GAIN -5.21 dB REM REPLAYGAIN_TRACK_PEAK 0.886444 INDEX 01 00:00:00FILE "15 - L'Apotheose De Lulli: Rumeurs souterraines causees par les auteurs contemporains de Lulli.flac" WAVE TRACK 15 AUDIO TITLE "L'Apotheose De Lulli: Rumeurs souterraines causees par les auteurs contemporains de Lulli" PERFORMER "François Couperin" SONGWRITER "Couperin, François (1668-1733)" REM REPLAYGAIN_TRACK_GAIN -3.99 dB REM REPLAYGAIN_TRACK_PEAK 0.952911 INDEX 01 00:00:00FILE "16 - L'Apotheose De Lulli: Plaintes des memes.flac" WAVE TRACK 16 AUDIO TITLE "L'Apotheose De Lulli: Plaintes des memes" PERFORMER "François Couperin" SONGWRITER "Couperin, François (1668-1733)" REM REPLAYGAIN_TRACK_GAIN 4.71 dB REM REPLAYGAIN_TRACK_PEAK 0.320648 INDEX 01 00:00:00FILE "17 - L'Apotheose De Lulli: Enlevement de Lulli au Parnasse.flac" WAVE TRACK 17 AUDIO TITLE "L'Apotheose De Lulli: Enlevement de Lulli au Parnasse" PERFORMER "François Couperin" SONGWRITER "Couperin, François (1668-1733)" REM REPLAYGAIN_TRACK_GAIN -4.89 dB REM REPLAYGAIN_TRACK_PEAK 0.799530 INDEX 01 00:00:00FILE "18 - L'Apotheose De Lulli: Accueil entre-doux et agard fait a Lulli par Corelli et les muses italiennes.flac" WAVE TRACK 18 AUDIO TITLE "L'Apotheose De Lulli: Accueil entre-doux et agard fait a Lulli par Corelli et les muses italiennes" PERFORMER "François Couperin" SONGWRITER "Couperin, François (1668-1733)" REM REPLAYGAIN_TRACK_GAIN -3.11 dB REM REPLAYGAIN_TRACK_PEAK 0.794769 INDEX 01 00:00:00FILE "19 - L'Apotheose De Lulli: Remerciement de Lulli et Apollon.flac" WAVE TRACK 19 AUDIO TITLE "L'Apotheose De Lulli: Remerciement de Lulli et Apollon" PERFORMER "François Couperin" SONGWRITER "Couperin, François (1668-1733)" REM REPLAYGAIN_TRACK_GAIN 1.28 dB REM REPLAYGAIN_TRACK_PEAK 0.485626 INDEX 01 00:00:00 TRACK 20 AUDIO TITLE "Premier concert royal: Prelude" PERFORMER "François Couperin" SONGWRITER "Couperin, François (1668-1733)" REM REPLAYGAIN_TRACK_GAIN 5.58 dB REM REPLAYGAIN_TRACK_PEAK 0.382599 INDEX 00 02:46:35FILE "20 - Premier concert royal: Prelude.flac" WAVE INDEX 01 00:00:00FILE "21 - Premier Concert Royal: Allemande.flac" WAVE TRACK 21 AUDIO TITLE "Premier Concert Royal: Allemande" PERFORMER "François Couperin" SONGWRITER "Couperin, François (1668-1733)" REM REPLAYGAIN_TRACK_GAIN 4.79 dB REM REPLAYGAIN_TRACK_PEAK 0.328278 INDEX 01 00:00:00FILE "22 - Premier Concert Royal: Sarabande.flac" WAVE TRACK 22 AUDIO TITLE "Premier Concert Royal: Sarabande" PERFORMER "François Couperin" SONGWRITER "Couperin, François (1668-1733)" REM REPLAYGAIN_TRACK_GAIN 7.44 dB REM REPLAYGAIN_TRACK_PEAK 0.272217 INDEX 01 00:00:00FILE "23 - Premier Concert Royal: Gavotte.flac" WAVE TRACK 23 AUDIO TITLE "Premier Concert Royal: Gavotte" PERFORMER "François Couperin" SONGWRITER "Couperin, François (1668-1733)" REM REPLAYGAIN_TRACK_GAIN 5.51 dB REM REPLAYGAIN_TRACK_PEAK 0.328552 INDEX 01 00:00:00FILE "24 - Premier Concert Royal: Gigue.flac" WAVE TRACK 24 AUDIO TITLE "Premier Concert Royal: Gigue" PERFORMER "François Couperin" SONGWRITER "Couperin, François (1668-1733)" REM REPLAYGAIN_TRACK_GAIN 4.03 dB REM REPLAYGAIN_TRACK_PEAK 0.416382 INDEX 01 00:00:00FILE "25 - Premier Concert Royal: Menuet en Trio.flac" WAVE TRACK 25 AUDIO TITLE "Premier Concert Royal: Menuet en Trio" PERFORMER "François Couperin" SONGWRITER "Couperin, François (1668-1733)" REM REPLAYGAIN_TRACK_GAIN 7.68 dB REM REPLAYGAIN_TRACK_PEAK 0.267029 INDEX 01 00:00:00 TRACK 26 AUDIO TITLE "Tableau De l'operation de la Taille" PERFORMER "Marin Marais" SONGWRITER "Marin Marais" REM REPLAYGAIN_TRACK_GAIN 4.02 dB REM REPLAYGAIN_TRACK_PEAK 0.884247 INDEX 00 01:32:02FILE "26 - Tableau De l'operation de la Taille.flac" WAVE INDEX 01 00:00:00



Показать сообщения:    

Текущее время: 04-Дек 13:16

Часовой пояс: UTC + 3


Вы не можете начинать темы
Вы не можете отвечать на сообщения
Вы не можете редактировать свои сообщения
Вы не можете удалять свои сообщения
Вы не можете голосовать в опросах
Вы не можете прикреплять файлы к сообщениям
Вы не можете скачивать файлы