Пламя моей любви / Наша любовь не погаснет / Waga koi wa moenu / Flame of My Love (Кэндзи Мидзогути / Kenji Mizoguchi) [1949, Япония, драма, мелодрама, DVDRip] DVO (Инис) + Original Jap


Статистика раздачи [Обновить пиров]
Размер:  1.46 GB   |    Зарегистрирован:  1 год   |    Скачан:  0 раз
Сидов:  1  [  0 KB/s  ]   Подробная статистика пиров
 
   
 
 
 

[Цитировать]

Пламя моей любви / Наша любовь не погаснет / Waga koi wa moenu
Страна: Япония
Жанр: драма, мелодрама
Год выпуска: 1949
Продолжительность: 1:24:03
Перевод: Профессиональный (двухголосый закадровый) студия "Инис"
Cубтитры: нет
Оригинальная аудиодорожка: японский
Режиссер:Кэндзи Мидзогути / Kenji Mizoguchi
Сценарий: Ёсиката Ёда и и Канэто Синдо по роману Кого Нода, написанному по автобиографии Хидеко Кагэяма
В ролях: Кинуё Танака, Мицуко Мито, Кунико Миякэ, Итиро Сугаи, Синобу Араки, Дзэя Тида, Эйтаро Одзава, Садако Савамура, Корэя Сэнда, Эйдзиро Тоно
Описание: Эйко Хираяма — японская девушка, бросившая вызов патриархальному обществу. Она одна из первых в стране начинает бороться за права женщин и равенство с мужчинами. Для этого девушка покидает родной город и вступает в либеральную партию, попутно влюбляясь в ее лидера. Эйко не прекращает свою деятельность даже после того, как проводит несколько лет в тюрьме. Лишь одно омрачает дело всей жизни девушки: любимый мужчина не признает ее взгляды…
Действие фильма, вышедшего в свет в 1949 году, происходит незадолго до принятия первой японской Конституции 1889 года, а герои основаны на реальных исторических прототипах.
Доп. информация:
Качество видео: DVDRip
Формат видео: AVI
Видео: 720x544 (1.32:1), 25 fps, XviD build 47 ~2220 kbps avg, 0.23 bit/pixel
Аудио 1: 48 kHz, MPEG Layer 3, 2 ch, ~128.00 kbps avg [RUS]
Аудио 2: 48 kHz, MPEG Layer 3, 2 ch, ~128.00 kbps avg [JAP]

MediaInfo

GeneralComplete name : ...\Waga koi wa moenu (1949).aviFormat : AVIFormat/Info : Audio Video InterleaveFile size : 1.46 GiBDuration : 1h 24mnOverall bit rate : 2 492 KbpsWriting application : VirtualDubMod 1.5.4.1 (build 2178/release)Writing library : VirtualDubMod build 2178/release
VideoID : 0Format : MPEG-4 VisualFormat profile : Advanced Simple@L5Format settings, BVOP : NoFormat settings, QPel : NoFormat settings, GMC : No warppointsFormat settings, Matrix : CustomCodec ID : XVIDCodec ID/Hint : XviDDuration : 1h 24mnBit rate : 2 221 KbpsWidth : 720 pixelsHeight : 544 pixelsDisplay aspect ratio : 4:3Frame rate : 25.000 fpsColor space : YUVChroma subsampling : 4:2:0Bit depth : 8 bitsScan type : ProgressiveCompression mode : LossyBits/(Pixel*Frame) : 0.227Stream size : 1.30 GiB (89%)Writing library : XviD 1.2.0.dev47 (UTC 2006-11-01)
Audio #1ID : 1Format : MPEG AudioFormat version : Version 1Format profile : Layer 3Mode : Joint stereoMode extension : MS StereoCodec ID : 55Codec ID/Hint : MP3Duration : 1h 24mnBit rate mode : ConstantBit rate : 128 KbpsChannel(s) : 2 channelsSampling rate : 48.0 KHzCompression mode : LossyStream size : 77.0 MiB (5%)Alignment : Aligned on interleavesInterleave, duration : 40 ms (1.00 video frame)Interleave, preload duration : 504 msWriting library : LAMEЄЄ@Language : Japanese
Audio #2ID : 2Format : MPEG AudioFormat version : Version 1Format profile : Layer 3Mode : Joint stereoMode extension : MS StereoCodec ID : 55Codec ID/Hint : MP3Duration : 1h 24mnBit rate mode : ConstantBit rate : 128 KbpsChannel(s) : 2 channelsSampling rate : 48.0 KHzCompression mode : LossyStream size : 77.0 MiB (5%)Alignment : Aligned on interleavesInterleave, duration : 40 ms (1.00 video frame)Interleave, preload duration : 504 ms

Скриншоты

[teatrix.ru].t10842.torrent 
Торрент: Зарегистрирован [ 2015-11-24 21:35 ] · 96226D25BBC021CBA42AFE1486D64CE3D62A9ABB

Скачать .torrent

Скачать

15 KB

Статус: проверено
Скачан: 0 раз
Размер: 1.46 GB
terms.php



Быстрый ответ

Имя:

      
Для отправки сообщений необходимо включить JavaScript
Показать сообщения:    

Текущее время: 09-Дек 16:37

Часовой пояс: UTC + 3


Вы можете начинать темы
Вы можете отвечать на сообщения
Вы не можете редактировать свои сообщения
Вы не можете удалять свои сообщения
Вы не можете голосовать в опросах
Вы не можете прикреплять файлы к сообщениям
Вы можете скачивать файлы