Теряя контроль / She's Lost Control (Аня Марквардт / Anja Marquardt) [2014, США, драма, DVDRip] VO (Павел Морозов aka PashaUp) + Sub Rus


Статистика раздачи [Обновить пиров]
Размер:  1.46 GB   |    Зарегистрирован:  1 год   |    Скачан:  0 раз

Полного источника не было: Никогда

 
   
 
 
 

[Цитировать]

Теряя контроль / She's Lost Control
Страна: США
Жанр: драма
Год выпуска: 2014
Продолжительность: 01:30:02
Перевод: Одноголосый закадровый (Павел Морозов aka PashaUp)
Cубтитры: русские (creo140)
Оригинальная аудиодорожка: нет
Режиссер: Аня Марквардт / Anja Marquardt
В ролях: Брук Блум, Марк Менчака, Деннис Буцикарис, Лайла Робинс, Тобиаш Сигал, Роберт Лонгстрит,Роксанна Дэй, Райан Хомчик, Грегори Коростишевски, Генри Страм
Описание: Рона, невероятно независимая девушка, работает консультантом-сексологом в Нью-Йорке, где она учит своих клиентов тому, чего они боятся больше всего – близости. Ее привычная жизнь рушится, когда она начинает работать с новым темпераментным клиентом Джонни, и тонкая грань между профессиональной и личной близостью в современном мире начинает исчезать...
Берлинский кинофестиваль, 2014 год
Победитель: Приз Европейской конфедерации художественного кино (программа «Форум»)
Номинации: Лучший дебют (Аня Марквардт)

Сэмпл: http://multi-up.com/1076532
Качество видео: DVDRip
Формат видео: AVI
Видео: 720x400 (1.80:1), 23.976 fps, XviD build 50 ~1935 kbps avg, 0.28 bit/pixe
Аудио: 48 kHz, AC3 Dolby Digital, 3/2 (L,C,R,l,r) + LFE ch, ~384 kbps
Формат субтитров: softsub (SRT)

MediaInfo

Общее
Полное имя : D:\She's.Lost.Control_2014.DVDRip\She's.Lost.Control_2014.DVDRip.avi
Формат : AVI
Формат/Информация : Audio Video Interleave
Размер файла : 1,46 Гбайт
Продолжительность : 1 ч. 30 м.
Общий поток : 2329 Кбит/сек
Программа кодирования : VirtualDubMod 1.5.10.2 (build 2540/release)
Библиотека кодирования : VirtualDubMod build 2540/release
Видео
Идентификатор : 0
Формат : MPEG-4 Visual
Профиль формата : Advanced Simple@L5
Параметр BVOP формата : 1
Параметр QPel формата : Нет
Параметр GMC формата : Без точки перехода
Параметр матрицы формата : Default (MPEG)
Идентификатор кодека : XVID
Идентификатор кодека/Подсказка : XviD
Продолжительность : 1 ч. 30 м.
Битрейт : 1936 Кбит/сек
Ширина : 720 пикселей
Высота : 400 пикселей
Соотношение сторон : 16:9
Частота кадров : 23,976 кадра/сек
Цветовое пространство : YUV
Субдискретизация насыщенности : 4:2:0
Битовая глубина : 8 бит
Тип развёртки : Прогрессивная
Метод сжатия : С потерями
Бит/(Пиксели*Кадры) : 0.280
Размер потока : 1,22 Гбайт (83%)
Библиотека кодирования : XviD 1.2.1 (UTC 2008-12-04)
Аудио
Идентификатор : 1
Формат : AC-3
Формат/Информация : Audio Coding 3
Расширение режима : CM (complete main)
Параметр Endianness формата : Big
Идентификатор кодека : 2000
Продолжительность : 1 ч. 30 м.
Вид битрейта : Постоянный
Битрейт : 384 Кбит/сек
Каналы : 6 каналов
Расположение каналов : Front: L C R, Side: L R, LFE
Частота : 48,0 КГц
Метод сжатия : С потерями
Размер потока : 247 Мбайт (16%)
Выравнивание : Разделение по промежуткам
Продолжительность промежутка : 42 мс. (1,00 видеокадр)
Время предзагрузки промежутка : 500 мс.

Скриншот c названием фильма

[teatrix.ru].t10843.torrent 
Торрент: Зарегистрирован [ 2015-11-24 21:35 ] · F8FE8B82FAECC7F198C3290E9B464DCF17456B4A

Скачать .torrent

Скачать

15 KB

Статус: проверено
Скачан: 0 раз
Размер: 1.46 GB
terms.php



Быстрый ответ

Имя:

      
Для отправки сообщений необходимо включить JavaScript
Показать сообщения:    

Текущее время: 05-Дек 01:24

Часовой пояс: UTC + 3


Вы можете начинать темы
Вы можете отвечать на сообщения
Вы не можете редактировать свои сообщения
Вы не можете удалять свои сообщения
Вы не можете голосовать в опросах
Вы не можете прикреплять файлы к сообщениям
Вы можете скачивать файлы