Холодный рай / Холодные небеса / Cold Heaven (Николас Роуг / Nicolas Roeg) [1991, США, Триллер, мистика, драма, VHSRip] [FullScreen] AVO Леонид Володарский


Статистика раздачи [Обновить пиров]
Размер:  1.46 GB   |    Зарегистрирован:  1 год   |    Скачан:  0 раз

Полного источника не было: Никогда

 
   
 
 
 

[Цитировать]

Холодный рай / Холодные небеса / Cold Heaven
[FullScreen]
Страна: США
Жанр: Триллер, мистика, драма
Год выпуска: 1991
Продолжительность: 01:41:43
Перевод: Авторский (одноголосый закадровый) Леонид Володарский
Cубтитры: нет
Режиссер: Николас Роуг / Nicolas Roeg
В ролях: Тереза Расселл, Марк Хармон, Джеймс Руссо, Джули Кармен, Уилл Пэттон, Талия Шайр, Ричард Брэдфорд
Описание: Аннотация от alenavova
Бедный Марк Хармон! Неплохой актер, и внешне вполне симпатичный, а вот выбрал его режиссер Николас Роуг на роль Алекса Дэвенпорта, мужа главной героини Мэри Дэвенпорт, для того, чтобы шлепнуть в первых же эпизодах фильма. И погибает он не от ножа или, скажем, пистолета, а от винта катера, пронесшегося над ним с бешеной скоростью. Трагическая, конечно, ситуация, но жена, на глазах которой погиб Алекс, не может для себя решить - плохо это или хорошо? Потому что у нее есть любовник - Дэниэл Корвин. И, кто знает, может быть, смерть мужа - это ей наказание божье за грехи плоти... Экранизация романа Брайена Мура - скорее криминально-религиозная драма, нежели "черный триллер" про тайны адюльтера: умер - не умер? несчастный случай - умышленное убийство? Николас Роуг снял здесь не только свою жену Терезу Расселл, но и других отличных актеров (Уилл Пэттон, Талия Шайр, Ричард Брэдфорд).
Доп. информация: Оцифровка VHS (личный архив) и получение VHSRip alenavova
Сэмпл: https://yadi.sk/i/57Kt_aIUkf5cs
Качество видео: VHSRip
Формат видео: AVI
Видео: 704x528 (1.33:1), 25 fps, XviD build 73 ~1858 kbps avg, 0.20 bit/pixel
Аудио: 48 kHz, AC3 Dolby Digital, 2/0 (L,R) ch, ~192 kbps

MediaInfo

Холодный рай - Cold Heaven (by alenavova).avi
Format : AVI
Format/Info : Audio Video Interleave
File size : 1.46 GiB
Duration : 1h 41mn
Overall bit rate : 2 061 Kbps
Movie name : Холодный рай - Cold Heaven (by alenavova)
Director : by alenavova
Writing application : VirtualDubMod 1.5.10.3 | www.virtualdub-fr.org || (build 2550/release)
Copyright : Edich2
Video
ID : 0
Format : MPEG-4 Visual
Format profile : Advanced Simple@L5
Format settings, BVOP : 1
Format settings, QPel : No
Format settings, GMC : No warppoints
Format settings, Matrix : Default (H.263)
Codec ID : XVID
Codec ID/Hint : XviD
Duration : 1h 41mn
Bit rate : 1 859 Kbps
Width : 704 pixels
Height : 528 pixels
Display aspect ratio : 4:3
Frame rate : 25.000 fps
Color space : YUV
Chroma subsampling : 4:2:0
Bit depth : 8 bits
Scan type : Progressive
Compression mode : Lossy
Bits/(Pixel*Frame) : 0.200
Stream size : 1.32 GiB (90%)
Writing library : XviD 73
Audio
ID : 1
Format : AC-3
Format/Info : Audio Coding 3
Mode extension : CM (complete main)
Format settings, Endianness : Big
Codec ID : 2000
Duration : 1h 41mn
Bit rate mode : Constant
Bit rate : 192 Kbps
Channel(s) : 2 channels
Channel positions : Front: L R
Sampling rate : 48.0 KHz
Bit depth : 16 bits
Compression mode : Lossy
Stream size : 140 MiB (9%)
Alignment : Split accross interleaves
Interleave, duration : 40 ms (1.00 video frame)
Interleave, preload duration : 500 ms

Скриншоты


[teatrix.ru].t10844.torrent 
Торрент: Зарегистрирован [ 2015-11-24 21:35 ] · 7AACB420C158E5CB79F6780B3364403B77A03C18

Скачать .torrent

Скачать

15 KB

Статус: проверено
Скачан: 0 раз
Размер: 1.46 GB
terms.php



Быстрый ответ

Имя:

      
Для отправки сообщений необходимо включить JavaScript
Показать сообщения:    

Текущее время: 06-Дек 13:11

Часовой пояс: UTC + 3


Вы можете начинать темы
Вы можете отвечать на сообщения
Вы не можете редактировать свои сообщения
Вы не можете удалять свои сообщения
Вы не можете голосовать в опросах
Вы не можете прикреплять файлы к сообщениям
Вы можете скачивать файлы