Дикая охота короля Стаха / Дзікае паляванне караля Стаха (Владимир Солтан, Вячеслав Цюпа) [1989, Opera, DVB-AVC] [BLR]


 

[Цитировать]

Дикая охота короля Стаха / Дзікае паляванне караля Стаха
Год выпуска: 1989
Страна-производитель: Белорусская ССР
Постановка: Государственный Ордена Ленина Академический Большой Театр Оперы и Балета БССР
Жанр: Opera
Продолжительность: 01:49:45
Язык: белорусский
Режиссер: Вячеслав Цюпа
Релиз:
Исполнители:
Яновская - Наталья Костенко
Белорецкий - заслуженный артист БССР, лауреат Государственной премии Республики Беларусь Виктор Скоробогатов
Дуботовк - заслуженный артист БССР Владимир Экнадиосов
Рыгор - Ярослав Петров народный артист БССР
Светилович - Иван Шупенич
Ворона - Владимир Генералов
Берман - Владимир Каврус
Первый шляхтич - Геннадий Чепиков
Второй шляхтич - Михаил Дружина
Гости, селяне - артисты театра
Описание:
Опера "Дикая охота короля Стаха" по мотивам «исторического детектива» Владимира Короткевича уже стала национальной музыкальной классикой. Она была создана в 1989 году в непосредственном «соавторстве» композитора Владимира Солтана с солистами белорусской оперы и постановочной группой в составе дирижеров Я. Вощака и А. Анисимова, режиссера В. Цюпы и художника Э. Гейдебрехта. В год постановки опера дважды была представлена на сцене Большого театра в Москве и имела большой успех у столичной публики. В 1990 году талантливая работа композитора, постановщиков и исполнителей главный ролей Н. Костенко, В. Скоробогатова и В. Экнадиосова была отмечена Государственной премией БССР. Уникальным для Беларуси явлением стало исполнение оперы в «натуральных декорациях» Троицкого предместья в Минске.
Конфликтная завязка сюжета оперы вызывает в памяти знаменитую английскую повесть о собаке Баскервилей, где также один из родственников задался целью уничтожить всех претендентов на родовые титул и богатство. Однако, колорит «Дикой охоты» насквозь белорусский. В музыке оживает неповторимое настроение мистической красоты и ужаса, которыми овеяны предания жителей таинственных полесских болот.
Собиратель фольклора Белорецкий заблудился в лесу и попал в имение Надежда Яновской – последней из представительниц некогда богатого и знатного рода. Девушка измучена ужасом нашествия страшной конницы под предводительством короля Стаха. Как гласит фамильная легенда, Стах был вероломно убит на охоте своим другом Яновским-старшим. Белорецкий берется распутать таинственную историю с ожившими мертвецами…
10 премьерных спектаклей шли в аншлагах, во время которых, по словам очевидцев, у театра даже дежурила конная милиция. Мастерство композитора, дирижеров Я. Вощака и А. Анисимова, режиссера В. Цюпы, художника Э. Гейдебрехта, солистов Н. Костенко, В. Скоробогатова и В. Экнадиосова было отмечено Государственной премией Республики Беларусь 1990 года.
Доп. информация:
Либретто – Светлана Климкович по одноименной повести Владимира Короткевича
Музыкальный руководитель – народный артист СССР, лауреат Государственной премии Республики Беларусь Ярослав Вощак
Дирижер-постановщик – заслуженный деятель искусств РСФСР, лауреат Государственной премии Республики Беларусь Александр Анисимов
Режиссер-постановщик – лауреат Государственной премии Республики Беларусь Вячеслав Цюпа
Художник-постановщик – лауреат Государственной премии Республики Беларусь Эрнст Гейдебрехт
Художник по костюмам – Элеонора Григорук
Хормейстер – народная артистка Беларуси Нина Ломанович
Балетмейстер-постановщик – заслуженный деятель искусств Республики Беларусь Николай Дудченко
Дирижеры – Вячеслав Волич, Иван Костяхин
Режиссер – заслуженный артист Республики Беларусь, лауреат Государственной премии Республики Беларусь Виктор Скоробогатов
Премьера – 6 апреля 1989 года

Благодарность: исходник для данной раздачи, записан с цифрового наземного канала, т.е. DVB-Т
Запись потока *.ts с наземного цифрового телеканала "Беларусь 3", ремукс в *.mkv программой VideoReDo.
Качество видео: DVB-AVC
Формат видео: MKV
Видео кодек: H.264
Аудио кодек: MP2
Видео: AVC (H264), 720x576 (4:3), 25 fps, 2 089 Kbps
Аудио: MP2, 256 kbps, 2 channels, 48 kHz

MediaInfo

GeneralUnique ID : 224164895341608195019839145685249071214 (0xA8A496A42094CE8288A8F7792C5E986E)Complete name : D:\Новая земля 2\Телеоперы\Дзікае паляванне караля Стаха (1989)\Дзікае паляванне караля Стаха (1989).mkvFormat : MatroskaFormat version : Version 4 / Version 2File size : 1.83 GiBDuration : 1h 49mnOverall bit rate mode : VariableOverall bit rate : 2 392 KbpsEncoded date : UTC 2015-11-23 15:07:12Writing application : mkvmerge v8.5.1 ('Where you lead I will follow') 32bitWriting library : libebml v1.3.3 + libmatroska v1.4.4
VideoID : 1Format : AVCFormat/Info : Advanced Video CodecFormat profile : Main@L3.0Format settings, CABAC : YesFormat settings, ReFrames : 4 framesFormat settings, GOP : M=4, N=24Codec ID : V_MPEG4/ISO/AVCDuration : 1h 49mnBit rate mode : VariableBit rate : 2 089 KbpsMaximum bit rate : 40.0 MbpsWidth : 720 pixelsHeight : 576 pixelsDisplay aspect ratio : 4:3Original display aspect ratio : 4:3Frame rate mode : ConstantFrame rate : 25.000 fpsStandard : PALColor space : YUVChroma subsampling : 4:2:0Bit depth : 8 bitsScan type : MBAFFScan order : Top Field FirstBits/(Pixel*Frame) : 0.201Stream size : 1.60 GiB (87%)Default : YesForced : NoColor primaries : BT.601 PALTransfer characteristics : BT.470 System B, BT.470 System GMatrix coefficients : BT.601Color range : LimitedDURATION : 01:49:45.080000000NUMBER_OF_FRAMES : 164627NUMBER_OF_BYTES : 1756697217_STATISTICS_WRITING_APP : mkvmerge v8.5.1 ('Where you lead I will follow') 32bit_STATISTICS_WRITING_DATE_UTC : 2015-11-23 15:07:12_STATISTICS_TAGS : BPS DURATION NUMBER_OF_FRAMES NUMBER_OF_BYTES
AudioID : 2Format : MPEG AudioFormat version : Version 1Format profile : Layer 2Codec ID : A_MPEG/L2Codec ID/Hint : MP2Duration : 1h 49mnBit rate mode : ConstantBit rate : 256 KbpsChannel(s) : 2 channelsSampling rate : 48.0 KHzCompression mode : LossyDelay relative to video : 300msStream size : 201 MiB (11%)Language : EnglishDefault : YesForced : NoDURATION : 01:49:45.072000000NUMBER_OF_FRAMES : 274378NUMBER_OF_BYTES : 210722304_STATISTICS_WRITING_APP : mkvmerge v8.5.1 ('Where you lead I will follow') 32bit_STATISTICS_WRITING_DATE_UTC : 2015-11-23 15:07:12_STATISTICS_TAGS : BPS DURATION NUMBER_OF_FRAMES NUMBER_OF_BYTES



Показать сообщения:    

Текущее время: 05-Дек 11:32

Часовой пояс: UTC + 3


Вы не можете начинать темы
Вы не можете отвечать на сообщения
Вы не можете редактировать свои сообщения
Вы не можете удалять свои сообщения
Вы не можете голосовать в опросах
Вы не можете прикреплять файлы к сообщениям
Вы не можете скачивать файлы