Визит дамы (Сергей Кортес, Николай Пинигин) [1997, Opera, DVB-AVC] [RU]


 

[Цитировать]

Визит дамы
Год выпуска: 1997
Страна-производитель: Республика Беларусь
Постановка: Национальный Академический Большой Театр Оперы и Балета Республики Беларусь
Жанр: Opera
Продолжительность: 01:32:02
Язык: русский
Режиссер: Николай Пинигин
Релиз:
Исполнители:
Клара Цаханасян - заслуженная артистка Республики Беларусь Наталья Руднева
Альфред Илл - народный артист России Эдуард Пелагейченко
Клерхен - Тамара Глаголева
Бургомистр - заслуженный артист Республики Беларусь Михаил Жилюк
Учитель - Сергей Франковский
Священник - Геннадий Чепиков
Судья - (? Олег Мельников нет в титрах)
Художник - заслуженный артист России Николай Моисеенко
Полицейский - народный артист Республики Беларусь Виктор Чернобаев
Жена Илла - Людмила Кривёнок
Жена бургомистра - Марина Аксенцева
Дворецкий - Александр Кеда
Коби - Якоб Хюнлейн - Елена Бунделёва
Лоби - Людвиг Шпар - Элла Рыжанович
Слуги Клары, граждане города Гюлена - артисты хора, миманс театра
Описание:
Опера "Визит дамы" (1997, в 2 актах) по мотивам пьесы Ф.Дюренматта "Визит старой дамы".
На свою родину, в маленький городок, приезжает миллиардерша Клер Цаханасян. Она готова подарить городу миллиард, но взамен требует жизнь своего бывшего возлюбленного...
Доп. информация:
Композитор - Сергей Кортес
Либретто - Владимир Халип
Музыкальный руководитель и дирижёр - народный артист России Геннадий Проваторов
Режиссер-постановщик - лауреат Государственной премии Беларуси Николай Пинигин
Сценография - Зиновий Марголин
Дирижёр спектакля - Андрей Галанов

Благодарность: исходник для данной раздачи, записан с цифрового наземного канала, т.е. DVB-Т
Запись потока *.ts с наземного цифрового телеканала "Беларусь 3", ремукс в *.mkv программой VideoReDo.
Качество видео: DVB-AVC
Формат видео: MKV
Видео кодек: H.264
Аудио кодек: MP2
Видео: AVC (H264), 720x576 (4:3), 25 fps, 2 108 Kbps
Аудио: MP2, 256 kbps, 2 channels, 48 kHz

MediaInfo

GeneralUnique ID : 146704984618241079842416259985923984971 (0x6E5E5A2F764B28C9656E72F7567D4E4B)Complete name : D:\Новая земля 2\Телеоперы\Визит дамы (1997)\Визит дамы (1997).mkvFormat : MatroskaFormat version : Version 2File size : 1.55 GiBDuration : 1h 32mnOverall bit rate : 2 412 KbpsWriting application : Lavf52.64.2Writing library : Lavf52.64.2
VideoID : 1Format : AVCFormat/Info : Advanced Video CodecFormat profile : Main@L3.0Format settings, CABAC : YesFormat settings, ReFrames : 4 framesFormat settings, GOP : M=4, N=24Codec ID : V_MPEG4/ISO/AVCDuration : 1h 32mnBit rate : 2 108 KbpsWidth : 720 pixelsHeight : 576 pixelsDisplay aspect ratio : 4:3Original display aspect ratio : 4:3Frame rate mode : ConstantFrame rate : 25.000 fpsStandard : PALColor space : YUVChroma subsampling : 4:2:0Bit depth : 8 bitsScan type : MBAFFScan order : Top Field FirstBits/(Pixel*Frame) : 0.203Stream size : 1.36 GiB (87%)Default : YesForced : NoColor primaries : BT.601 PALTransfer characteristics : BT.470 System B, BT.470 System GMatrix coefficients : BT.601Color range : Limited
AudioID : 2Format : MPEG AudioFormat version : Version 1Format profile : Layer 2Codec ID : A_MPEG/L2Codec ID/Hint : MP2Duration : 1h 32mnBit rate mode : ConstantBit rate : 256 KbpsChannel(s) : 2 channelsSampling rate : 48.0 KHzCompression mode : LossyStream size : 169 MiB (11%)Language : EnglishDefault : YesForced : No



Показать сообщения:    

Текущее время: 04-Дек 15:17

Часовой пояс: UTC + 3


Вы не можете начинать темы
Вы не можете отвечать на сообщения
Вы не можете редактировать свои сообщения
Вы не можете удалять свои сообщения
Вы не можете голосовать в опросах
Вы не можете прикреплять файлы к сообщениям
Вы не можете скачивать файлы