Портрет госпожи Юки / Yuki fujin ezu (Кэндзи Мидзогути / Kenji Mizoguchi) [1950, Япония, драма, DVDRip] DVO (Инис)


Статистика раздачи [Обновить пиров]
Размер:  700 MB   |    Зарегистрирован:  1 год   |    Скачан:  0 раз

Полного источника не было: Никогда

 
   
 
 
 

[Цитировать]

Портрет госпожи Юки / Yuki fujin ezu
Страна: Япония
Жанр: драма
Год выпуска: 1950
Продолжительность: 1:25:36
Перевод: Профессиональный (двухголосый закадровый) студия "Инис"
Cубтитры: нет
Оригинальная аудиодорожка: японский
Режиссер: Кэндзи Мидзогути / Kenji Mizoguchi
В ролях: Митиё Когурэ, Ёсико Куга, Кэн Уэхара, Эйдзиро Янаги, Харуя Като, Юрико Хамада, Кумэко Урабэ, Сидзуэ Нацукава, Со Ямамура, Бин Комори, Реи Исикава, Итиро Савай, Сиро Мидзуки, Харуо Танака
Описание: Жизненная драма молодой женщины по имени Юки. Семейная жизнь приносит бедняжке только страдания. Муж Наюки Синано не уважает свою жену, унижает ее и изменяет. Юки хочет развестись, но до последнего терпит. Ее решимость обостряется, когда обнаглевший Наюки приводит в дом любовницу. Тогда Юки решает сбежать из дома с влюбленным в нее поклонником, но все же есть нечто, что заставляет ее сомневаться в правильности своего поступка.
Доп. информация: По роману Сэйити Фунабаси.

Качество видео: DVDRip
Формат видео: AVI
Видео: 640x480 (1.33:1), 23.976 fps, XviD build 50 ~872 kbps avg, 0.12 bit/pixel
Аудио 1: 48 kHz, MPEG Layer 3, 2 ch, ~128.00 kbps avg [RUS]
Аудио 2: 48 kHz, MPEG Layer 3, 2 ch, ~128.00 kbps avg [JAP]

MediaInfo

GeneralComplete name : ...\Yuki fujin ezu (1950).aviFormat : AVIFormat/Info : Audio Video InterleaveFile size : 700 MiBDuration : 1h 25mnOverall bit rate : 1 144 KbpsWriting application : VirtualDubMod 1.5.4.1 (build 2178/release)Writing library : VirtualDubMod build 2178/release
VideoID : 0Format : MPEG-4 VisualFormat profile : Advanced Simple@L5Format settings, BVOP : 2Format settings, QPel : NoFormat settings, GMC : No warppointsFormat settings, Matrix : Default (H.263)Codec ID : XVIDCodec ID/Hint : XviDDuration : 1h 25mnBit rate : 874 KbpsWidth : 640 pixelsHeight : 480 pixelsDisplay aspect ratio : 4:3Frame rate : 23.976 fpsColor space : YUVChroma subsampling : 4:2:0Bit depth : 8 bitsScan type : ProgressiveCompression mode : LossyBits/(Pixel*Frame) : 0.119Stream size : 535 MiB (76%)Writing library : XviD 1.2.1 (UTC 2008-12-04)
Audio #1ID : 1Format : MPEG AudioFormat version : Version 1Format profile : Layer 3Mode : Joint stereoMode extension : MS StereoCodec ID : 55Codec ID/Hint : MP3Duration : 1h 25mnBit rate mode : ConstantBit rate : 128 KbpsChannel(s) : 2 channelsSampling rate : 48.0 KHzCompression mode : LossyStream size : 78.4 MiB (11%)Alignment : Aligned on interleavesInterleave, duration : 42 ms (1.00 video frame)Interleave, preload duration : 504 ms
Audio #2ID : 2Format : MPEG AudioFormat version : Version 1Format profile : Layer 3Codec ID : 55Codec ID/Hint : MP3Duration : 1h 25mnBit rate mode : ConstantBit rate : 128 KbpsChannel(s) : 2 channelsSampling rate : 48.0 KHzCompression mode : LossyStream size : 78.4 MiB (11%)Alignment : Aligned on interleavesInterleave, duration : 42 ms (1.00 video frame)Interleave, preload duration : 504 msWriting library : LAME3.99.1

Скриншоты

[teatrix.ru].t10849.torrent 
Торрент: Зарегистрирован [ 2015-11-25 01:40 ] · 84B7048C26F91B96193A155135626073F53B952A

Скачать .torrent

Скачать

14 KB

Статус: проверено
Скачан: 0 раз
Размер: 700 MB
terms.php



Быстрый ответ

Имя:

      
Для отправки сообщений необходимо включить JavaScript
Показать сообщения:    

Текущее время: 04-Дек 11:15

Часовой пояс: UTC + 3


Вы можете начинать темы
Вы можете отвечать на сообщения
Вы не можете редактировать свои сообщения
Вы не можете удалять свои сообщения
Вы не можете голосовать в опросах
Вы не можете прикреплять файлы к сообщениям
Вы можете скачивать файлы