Господа Головлевы (Юрий Маляцкий) [1969 г., драма, телеспектакль, TVRip]


 

[Цитировать]

Господа Головлевы (2 части) Год выпуска: 1969.
Жанр: драма, телеспектакль.
Продолжительность: 00:57:13 + 01:05:10 (02:02:23).
Режиссер: Юрий Маляцкий.
Действующие лица и исполнители:
Арина Петровна - Зинаида Афанасенко,
Порфирий - Михаил Храбров,
Степан - Иван Краско,
Павел - Леонард Борисевич,
Аннинька - Наталья Тенякова,
Любинька - Фаина Никитина,
Петя - Владимир Особик,
Володя - Владимир Тыкке,
Улита - Вера Кузнецова,
Фока - Николай Трофимов,
Бурмистр - Николай Боярский,
Доктор - Павел Панков,
Евпраксия - Лариса Алешина,
Батюшка - Борис Самошин.
О спектакле:
Телеспектакль по роману Михаила Евграфовича Салтыкова-Щедрина.
Дополнительная информация:
Страна: СССР .
Выпущено: Ленинградское телевидение.
Автор: Михаил Салтыков-Щедрин.
Сценарий и постановка: Юрий Маляцкий.
Ведущий оператор: Михаил Филиппов.
Художник: Николай Субботин.
Художник по костюмам: Татьяна Ураевская.
Релиз

Качество видео:...TVRip
Формат:.................AVI
Видео:..640x480 (1.33:1), 25 fps, XviD MPEG-4 ~1458 kbps avg, 0.19 bit/pixel
Аудио:..44.100 kHz, MPEG Layer 3, 2 ch, ~128.00 kbps avg

Отчет Media Info

1-я часть:
General
Complete name : Gospoda.Golovlevy.(2.chasti).1969.XviD.TVRip.fenixclub.com\Gospoda.Golovlevy.1.avi
Format : AVI
Format/Info : Audio Video Interleave
File size : 653 MiB
Duration : 57mn 12s
Overall bit rate : 1 597 Kbps
Writing application : VirtualDubModRus 1.5.10.2 (build 2542/release)
Writing library : VirtualDubMod build 2542/release
Video
ID : 0
Format : MPEG-4 Visual
Format profile : Advanced Simple@L5
Format settings, BVOP : 2
Format settings, QPel : No
Format settings, GMC : No warppoints
Format settings, Matrix : Default (MPEG)
Codec ID : XVID
Codec ID/Hint : XviD
Duration : 57mn 12s
Bit rate : 1 459 Kbps
Width : 640 pixels
Height : 480 pixels
Display aspect ratio : 4:3
Frame rate : 25.000 fps
Color space : YUV
Chroma subsampling : 4:2:0
Bit depth : 8 bits
Scan type : Progressive
Compression mode : Lossy
Bits/(Pixel*Frame) : 0.190
Stream size : 597 MiB (91%)
Writing library : XviD 73
Audio
ID : 1
Format : MPEG Audio
Format version : Version 1
Format profile : Layer 3
Codec ID : 55
Codec ID/Hint : MP3
Duration : 57mn 12s
Bit rate mode : Constant
Bit rate : 128 Kbps
Channel(s) : 2 channels
Sampling rate : 44.1 KHz
Compression mode : Lossy
Stream size : 52.4 MiB (8%)
Alignment : Split accross interleaves
Interleave, duration : 40 ms (1.00 video frame)
Interleave, preload duratio : 500 ms
Writing library : LAME3.99r
Encoding settings : -m s -V 4 -q 2 -lowpass 17 -b 128
2-я часть:
General
Complete name : Gospoda.Golovlevy.(2.chasti).1969.XviD.TVRip.fenixclub.com\Gospoda.Golovlevy.2.avi
Format : AVI
Format/Info : Audio Video Interleave
File size : 744 MiB
Duration : 1h 5mn
Overall bit rate : 1 597 Kbps
Writing application : VirtualDubModRus 1.5.10.2 (build 2542/release)
Writing library : VirtualDubMod build 2542/release
Video
ID : 0
Format : MPEG-4 Visual
Format profile : Advanced Simple@L5
Format settings, BVOP : 2
Format settings, QPel : No
Format settings, GMC : No warppoints
Format settings, Matrix : Default (MPEG)
Codec ID : XVID
Codec ID/Hint : XviD
Duration : 1h 5mn
Bit rate : 1 459 Kbps
Width : 640 pixels
Height : 480 pixels
Display aspect ratio : 4:3
Frame rate : 25.000 fps
Color space : YUV
Chroma subsampling : 4:2:0
Bit depth : 8 bits
Scan type : Progressive
Compression mode : Lossy
Bits/(Pixel*Frame) : 0.190
Stream size : 680 MiB (91%)
Writing library : XviD 73
Audio
ID : 1
Format : MPEG Audio
Format version : Version 1
Format profile : Layer 3
Codec ID : 55
Codec ID/Hint : MP3
Duration : 1h 5mn
Bit rate mode : Constant
Bit rate : 128 Kbps
Channel(s) : 2 channels
Sampling rate : 44.1 KHz
Compression mode : Lossy
Stream size : 59.7 MiB (8%)
Alignment : Split accross interleaves
Interleave, duration : 40 ms (1.00 video frame)
Interleave, preload duratio : 500 ms
Writing library : LAME3.99r
Encoding settings : -m s -V 4 -q 2 -lowpass 17 -b 128

Скриншоты


Альтернативный хост





Показать сообщения:    

Текущее время: 10-Дек 07:58

Часовой пояс: UTC + 3


Вы не можете начинать темы
Вы не можете отвечать на сообщения
Вы не можете редактировать свои сообщения
Вы не можете удалять свои сообщения
Вы не можете голосовать в опросах
Вы не можете прикреплять файлы к сообщениям
Вы не можете скачивать файлы