(Choral) Альфред Шнитке - Фауст-кантата | Реквием (Камерный Хор Московской Консерватории • Ансамбль »Студия Новой Музыки« - А.Соловьёв) - 2014, FLAC (image+.cue) lossless


Статистика раздачи [Обновить пиров]
Размер:  391 MB   |    Зарегистрирован:  1 год   |    Скачан:  0 раз

Полного источника не было: Никогда

Личеров:  1  [  0 KB/s  ]   Подробная статистика пиров
 
   
 
 
 

[Цитировать]

Alfred Schnittke
FAUST CANTATA
REQUIEM
-
-
- Жанр: Choral
Страна-производитель диска: Россия
Год издания диска: 2014
Издатель (лейбл): SMC
Дата записи: 2013/14
Аудиокодек: FLAC
Тип рипа: image+.cue
Битрейт аудио: lossless
Продолжительность: 75'08''
Источник: собственный рип
Наличие сканов в содержимом раздачи: да
Треклист:
[01] Фауст-кантата: I. »Folget nun von Doctor Fausti Ende...«
[02] II. »Die vierundzwanzug Jahre...«
[03] III. »Gehen also miteinander...«
[04] IV. »Meine Liebe Vertraute und ganz günstige Herren!«
[05] V. »Als sie solches von Doctor Fausrus...«
[06] VI. »Mein Fauste...«
[07] VII. »Es geschah, aber zwischen...«
[08] VIII. »Diese gemeldete Magistri...«
[09] IX. »Also endet sich...«
[10] X. »Seid nüchern und wachet...«
[11] Реквием: No.1 Requiem
[12] No.2 Kyrie
[13] No.3 Dies irae
[14] No.4 Tuba mirum
[15] No.5 Rex tremendae
[16] No.6 Recordare
[17] No.7 Lacrimosa
[18] No.8 Domine Jesu
[19] No.9 Hostias
[20] No.10 Sanctus
[21] No.11 benedictus
[22] No.12 Agnus Dei
[23] No.13 Credo
[24] No.14 Requiem
Исполнители:
Алиса Гицба • Ольга Веселова - сопрано [11-24]
Людмила Борисова - меццо-сопрано [11-24]
Этери Бериашвили - контральто [1-10]
Олег Безинских - контртенор [1-10]
Алексей Татаринцев [1-10] • Тигран Матинян [11-24] - тенор
Владимир Байков - бас [1-10]
Евгения Кривицкая - орган
Камерный Хор Московской Консерватории
Ансамбль »Студия Новой Музыки«
Александр Соловьёв
-

Лог создания рипа

Exact Audio Copy V1.0 beta 4 from 7. December 2014
EAC extraction logfile from 29. September 2015, 0:41
Studio for New Music Chamber Orchestra - A.Solovyev / A.Schnittke - Faust-Cantata, Requiem
Used drive : PHILIPS PCRW804 Adapter: 1 ID: 1
Read mode : SecureUtilize accurate stream : YesDefeat audio cache : YesMake use of C2 pointers : No
Read offset correction : -436Overread into Lead-In and Lead-Out : NoFill up missing offset samples with silence : YesDelete leading and trailing silent blocks : NoNull samples used in CRC calculations : YesUsed interface : Native Win32 interface for Win NT & 2000
Used output format : User Defined EncoderSelected bitrate : 1024 kBit/sQuality : HighAdd ID3 tag : NoCommand line compressor : C:\Program Files (x86)\FLAC\flac.exeAdditional command line options : -T "COMMENT=rip by el coronel" -8 -V %source%
TOC of the extracted CD
Track | Start | Length | Start sector | End sector --------------------------------------------------------- 1 | 0:00.00 | 2:41.36 | 0 | 12110 2 | 2:41.36 | 2:31.33 | 12111 | 23468 3 | 5:12.69 | 1:38.29 | 23469 | 30847 4 | 6:51.23 | 7:53.08 | 30848 | 66330 5 | 14:44.31 | 4:08.47 | 66331 | 84977 6 | 18:53.03 | 3:07.63 | 84978 | 99065 7 | 22:00.66 | 5:05.36 | 99066 | 121976 8 | 27:06.27 | 3:03.51 | 121977 | 135752 9 | 30:10.03 | 1:59.24 | 135753 | 144701 10 | 32:09.27 | 3:29.57 | 144702 | 160433 11 | 35:39.09 | 4:26.30 | 160434 | 180413 12 | 40:05.39 | 2:53.20 | 180414 | 193408 13 | 42:58.59 | 1:07.56 | 193409 | 198489 14 | 44:06.40 | 3:04.45 | 198490 | 212334 15 | 47:11.10 | 1:19.37 | 212335 | 218296 16 | 48:30.47 | 2:56.12 | 218297 | 231508 17 | 51:26.59 | 3:04.20 | 231509 | 245328 18 | 54:31.04 | 1:31.37 | 245329 | 252190 19 | 56:02.41 | 1:03.54 | 252191 | 256969 20 | 57:06.20 | 4:08.00 | 256970 | 275569 21 | 61:14.20 | 1:30.42 | 275570 | 282361 22 | 62:44.62 | 2:49.34 | 282362 | 295070 23 | 65:34.21 | 4:09.07 | 295071 | 313752 24 | 69:43.28 | 5:24.55 | 313753 | 338107
Range status and errors
Selected range
Filename F:\Music\Schnittke - Faust Canata, Requiem\CD.wav
Peak level 100.0 % Extraction speed 2.2 X Range quality 100.0 % Test CRC 71E176C8 Copy CRC 71E176C8 Copy OK
No errors occurred
AccurateRip summary
Track 1 not present in databaseTrack 2 not present in databaseTrack 3 not present in databaseTrack 4 not present in databaseTrack 5 not present in databaseTrack 6 not present in databaseTrack 7 not present in databaseTrack 8 not present in databaseTrack 9 not present in databaseTrack 10 not present in databaseTrack 11 not present in databaseTrack 12 not present in databaseTrack 13 not present in databaseTrack 14 not present in databaseTrack 15 not present in databaseTrack 16 not present in databaseTrack 17 not present in databaseTrack 18 not present in databaseTrack 19 not present in databaseTrack 20 not present in databaseTrack 21 not present in databaseTrack 22 not present in databaseTrack 23 not present in databaseTrack 24 not present in database
None of the tracks are present in the AccurateRip database
End of status report
---- CUETools DB Plugin V2.1.4
[CTDB TOCID: QB34n5LkSAFhuXECjj5aGZcAAJs-] disk not present in databaseSubmit result: QB34n5LkSAFhuXECjj5aGZcAAJs- has been uploaded
==== Log checksum 18F74E59DF848DE30B5C0890BBCF6D9DC13BBB53E4C2D692CE2A4C635905204F ====

Содержание индексной карты (.CUE)

REM GENRE AvantgardeREM DATE 2014REM DISCID 5C119C18REM COMMENT "ExactAudioCopy v1.0b4"PERFORMER "Studio for New Music Chamber Orchestra - A.Solovyev"TITLE "A.Schnittke - Faust-Cantata, Requiem"FILE "CD.flac" WAVE TRACK 01 AUDIO TITLE "Faust Cantata: I. 'Folget nun von Doctor Fausti Ende...'" PERFORMER "Studio for New Music Chamber Orchestra - A.Solovyev" INDEX 01 00:00:00 TRACK 02 AUDIO TITLE "II. 'Die vierundzwanzug Jahre...'" PERFORMER "Studio for New Music Chamber Orchestra - A.Solovyev" INDEX 01 02:41:36 TRACK 03 AUDIO TITLE "III. 'Gehen also miteinander...'" PERFORMER "Studio for New Music Chamber Orchestra - A.Solovyev" INDEX 01 05:12:69 TRACK 04 AUDIO TITLE "IV. 'Meine Liebe Vertraute und ganz gunstige Herren!'" PERFORMER "Studio for New Music Chamber Orchestra - A.Solovyev" INDEX 01 06:51:23 TRACK 05 AUDIO TITLE "V. 'Als sie solches von Doctor Fausrus...'" PERFORMER "Studio for New Music Chamber Orchestra - A.Solovyev" INDEX 01 14:44:31 TRACK 06 AUDIO TITLE "VI. 'Mein Fauste...'" PERFORMER "Studio for New Music Chamber Orchestra - A.Solovyev" INDEX 01 18:53:03 TRACK 07 AUDIO TITLE "VII. 'Es geschah, aber zwischen...'" PERFORMER "Studio for New Music Chamber Orchestra - A.Solovyev" INDEX 01 22:00:66 TRACK 08 AUDIO TITLE "VIII. 'Diese gemeldete Magistri...'" PERFORMER "Studio for New Music Chamber Orchestra - A.Solovyev" INDEX 01 27:06:27 TRACK 09 AUDIO TITLE "IX. 'Also endet sich...'" PERFORMER "Studio for New Music Chamber Orchestra - A.Solovyev" INDEX 01 30:10:03 TRACK 10 AUDIO TITLE "X. 'Seid nuchern und wachet...'" PERFORMER "Studio for New Music Chamber Orchestra - A.Solovyev" INDEX 01 32:09:27 TRACK 11 AUDIO TITLE "Requiem: No.1 Requiem" PERFORMER "Studio for New Music Chamber Orchestra - A.Solovyev" INDEX 01 35:39:09 TRACK 12 AUDIO TITLE "No.2 Kyrie" PERFORMER "Studio for New Music Chamber Orchestra - A.Solovyev" INDEX 01 40:05:39 TRACK 13 AUDIO TITLE "No.3 Dies irae" PERFORMER "Studio for New Music Chamber Orchestra - A.Solovyev" INDEX 01 42:58:59 TRACK 14 AUDIO TITLE "No.4 Tuba mirum" PERFORMER "Studio for New Music Chamber Orchestra - A.Solovyev" INDEX 01 44:06:40 TRACK 15 AUDIO TITLE "No.5 Rex tremendae" PERFORMER "Studio for New Music Chamber Orchestra - A.Solovyev" INDEX 01 47:11:10 TRACK 16 AUDIO TITLE "No.6 Recordare" PERFORMER "Studio for New Music Chamber Orchestra - A.Solovyev" INDEX 01 48:30:47 TRACK 17 AUDIO TITLE "No.7 Lacrimosa" PERFORMER "Studio for New Music Chamber Orchestra - A.Solovyev" INDEX 01 51:26:59 TRACK 18 AUDIO TITLE "No.8 Domine Jesu" PERFORMER "Studio for New Music Chamber Orchestra - A.Solovyev" INDEX 01 54:31:04 TRACK 19 AUDIO TITLE "No.9 Hostias" PERFORMER "Studio for New Music Chamber Orchestra - A.Solovyev" INDEX 01 56:02:41 TRACK 20 AUDIO TITLE "No.10 Sanctus" PERFORMER "Studio for New Music Chamber Orchestra - A.Solovyev" INDEX 01 57:06:20 TRACK 21 AUDIO TITLE "No.11 benedictus" PERFORMER "Studio for New Music Chamber Orchestra - A.Solovyev" INDEX 01 61:14:20 TRACK 22 AUDIO TITLE "No.12 Agnus Dei" PERFORMER "Studio for New Music Chamber Orchestra - A.Solovyev" INDEX 01 62:44:62 TRACK 23 AUDIO TITLE "No.13 Credo" PERFORMER "Studio for New Music Chamber Orchestra - A.Solovyev" INDEX 01 65:34:21 TRACK 24 AUDIO TITLE "No.14 Requiem" PERFORMER "Studio for New Music Chamber Orchestra - A.Solovyev" INDEX 01 69:43:28
-Доп. информация: к Дню Рождения А.Шнитке относительно свежий диск от Московской консерватории.
[teatrix.ru].t10852.torrent 
Торрент: Зарегистрирован [ 2015-11-25 01:40 ] · C6418E99C15250AD7148130FF5994AA874061596

Скачать .torrent

Скачать

16 KB

Статус: проверено
Скачан: 0 раз
Размер: 391 MB
terms.php



Быстрый ответ

Имя:

      
Для отправки сообщений необходимо включить JavaScript
Показать сообщения:    

Текущее время: 08-Дек 03:15

Часовой пояс: UTC + 3


Вы можете начинать темы
Вы можете отвечать на сообщения
Вы не можете редактировать свои сообщения
Вы не можете удалять свои сообщения
Вы не можете голосовать в опросах
Вы не можете прикреплять файлы к сообщениям
Вы можете скачивать файлы