Полет красного надувного шарика / Полет красного надувного шара / Красный шар / Le voyage du ballon rouge / Flight of the Red Balloon (Хоу Сяосянь / Hou Hsiao-hsien) [2007, Франция, драма, DVDRip] DVO («Интерфильм»)


Статистика раздачи [Обновить пиров]
Размер:  1.46 GB   |    Зарегистрирован:  1 год   |    Скачан:  0 раз
Сидов:  1  [  0 KB/s  ]   Подробная статистика пиров
 
   
 
 
 

[Цитировать]

Полет красного надувного шарика / Полет красного надувного шара / Красный шар / Le voyage du ballon rouge / Flight of the Red Balloon
Страна: Франция
Жанр: драма
Год выпуска: 2007
Продолжительность: 01:50:35
Перевод: Профессиональный (двухголосый закадровый) - «Интерфильм»
Cубтитры: нет

Режиссер: Хоу Сяосянь / Hou Hsiao-hsien
В ролях: Жюльет Бинош, Симон Итеню, Сон Фан, Ипполит Жирардо, Луиз Марголин, Анна Сигалевич, Шарль-Эдуард Рено, Дамиэн Маэстрагги
Описание: У мальчика Симона есть необычный друг — красный воздушный шар, летающий над крышами Парижа и видимый только ему. Мать Симона перегружена работой в университете и на телешоу, поэтому Симон часто остается дома один. Чтобы присматривать за Симоном, она нанимает для него сиделку — студентку кино института из Тайваня.
Качество видео: DVDRip
Формат видео: AVI
Видео: 704x384 (1.83:1), 25 fps, XviD build 73 ~1684 kbps avg, 0.25 bit/pixel
Аудио: 48 kHz, AC3 Dolby Digital, 2/0 (L,R) ch, ~192 kbps

MediaInfo

Общее
Полное имя : H:\Le.voyage.du.ballon.rouge.2007.dvdrip_[1.46]_[teko].avi
Формат : AVI
Формат/Информация : Audio Video Interleave
Размер файла : 1,46 Гбайт
Продолжительность : 1 ч. 50 м.
Общий поток : 1886 Кбит/сек
Программа кодирования : VirtualDubMod 1.5.10.3 | www.virtualdub-fr.org || (build 2550/release)
Библиотека кодирования : VirtualDubMod build 2550/release
Видео
Идентификатор : 0
Формат : MPEG-4 Visual
Профиль формата : Advanced Simple@L5
Параметр BVOP формата : 1
Параметр QPel формата : Нет
Параметр GMC формата : Без точки перехода
Параметр матрицы формата : Выборочная
Идентификатор кодека : XVID
Идентификатор кодека/Подсказка : XviD
Продолжительность : 1 ч. 50 м.
Битрейт : 1684 Кбит/сек
Ширина : 704 пикселя
Высота : 384 пикселя
Соотношение сторон : 1,85:1
Частота кадров : 25,000 кадров/сек
Цветовое пространство : YUV
Субдискретизация насыщенности : 4:2:0
Битовая глубина : 8 бит
Тип развёртки : Прогрессивная
Метод сжатия : С потерями
Бит/(Пиксели*Кадры) : 0.249
Размер потока : 1,30 Гбайт (89%)
Библиотека кодирования : XviD 73
Аудио
Идентификатор : 1
Формат : AC-3
Формат/Информация : Audio Coding 3
Расширение режима : CM (complete main)
Параметр Endianness формата : Big
Идентификатор кодека : 2000
Продолжительность : 1 ч. 50 м.
Вид битрейта : Постоянный
Битрейт : 192 Кбит/сек
Каналы : 2 канала
Расположение каналов : Front: L R
Частота : 48,0 КГц
Битовая глубина : 16 бит
Метод сжатия : С потерями
Размер потока : 152 Мбайт (10%)
Выравнивание : Разделение по промежуткам
Продолжительность промежутка : 40 мс. (1,00 видеокадр)
Время предзагрузки промежутка : 500 мс.
[teatrix.ru].t10854.torrent 
Торрент: Зарегистрирован [ 2015-11-26 11:25 ] · 79BE758BC074DCEDC3BBCA1D380029B9DA9BAC4B

Скачать .torrent

Скачать

15 KB

Статус: проверено
Скачан: 0 раз
Размер: 1.46 GB
terms.php



Быстрый ответ

Имя:

      
Для отправки сообщений необходимо включить JavaScript
Показать сообщения:    

Текущее время: 08-Дек 05:18

Часовой пояс: UTC + 3


Вы можете начинать темы
Вы можете отвечать на сообщения
Вы не можете редактировать свои сообщения
Вы не можете удалять свои сообщения
Вы не можете голосовать в опросах
Вы не можете прикреплять файлы к сообщениям
Вы можете скачивать файлы