Хор / Chorus (Франсуа Делиль / Francois Delisle) [2015, Канада, драма, DVDRip] + Sub Rus + Original Fre


Статистика раздачи [Обновить пиров]
Размер:  1.46 GB   |    Зарегистрирован:  1 год   |    Скачан:  0 раз

Полного источника не было: Никогда

 
   
 
 
 

[Цитировать]

Хор / Chorus
Страна: Канада
Жанр: драма
Год выпуска: 2015
Продолжительность: 01:37:03
Перевод: Субтитры: creo140
Cубтитры: русские, английские
Оригинальная аудиодорожка: французский
Режиссер: Франсуа Делиль / Francois Delisle
В ролях: Себастьян Рикард, Фани Маллет, Женевьев Бюжо, Пьер Курци, Антуан Л’Экюйер, Люк Сени, Дидье Люсьен
Описание: Уго было восемь, когда он пропал без вести. Когда его поиски не дали никаких результатов, его родители, Кристоф и Ирэн, развелись под давлением мучительного ожидания. Он уезжает в Мексику. Она занимается своей карьерой в музыкальном хоре. Они живут в своих отдельных одиночествах. И вот однажды, через 10 лет, они получают известие, что были найдены человеческие останки. Всё указывает на то, что это их сын - Уго. Они вновь встречаются в Монреале.
Доп. информация: http://www.kinopoisk.ru/film/861631/
http://www.imdb.com/title/tt4040888/
Сэмпл: http://multi-up.com/1076772
Качество видео: DVDRip
Формат видео: AVI
Видео: Xvid 720x304 23.976fps 1694kbps
Аудио: Dolby AC3 48000Hz 6ch 448kbps
Формат субтитров: softsub (SRT)

Фрагмент субтитров

266
00:37:49,517 --> 00:37:50,779
Здравствуйте, Марк.
267
00:37:50,918 --> 00:37:52,545
Я хотел позвонить вчера, но...
268
00:37:53,688 --> 00:37:55,053
Я могу поговорить с ней?
269
00:37:56,958 --> 00:37:58,425
Нет, Ирэн ещё спит.
270
00:37:59,961 --> 00:38:01,360
Ей нужно отдохнуть.
271
00:38:01,462 --> 00:38:02,520
Я понимаю.
272
00:38:03,464 --> 00:38:05,864
В новостях говорили про Уго.
273
00:38:06,400 --> 00:38:07,697
Они не теряли времени даром.
274
00:38:07,902 --> 00:38:09,861
Репортеры продолжают названивать.
275
00:38:09,902 --> 00:38:11,861
Мы говорим им,
что это не их дело.
276
00:38:12,406 --> 00:38:16,433
Сможет ли она привыкнуть к этому?
277
00:38:16,577 --> 00:38:19,876
Да, она переживает сильно.
Она держится молодцом.
278
00:38:25,052 --> 00:38:26,542
Я передам, что вы звонили.
279
00:38:27,521 --> 00:38:28,510
Спасибо.

MediaInfo

Format : AVI
Format/Info : Audio Video Interleave
File size : 1.46 GiB
Duration : 1h 37mn
Overall bit rate : 2 152 Kbps
Writing application : VirtualDubMod 1.5.10.3 | www.virtualdub-fr.org || (build 2550/release)
Writing library : VirtualDubMod build 2550/release
Video
ID : 0
Format : MPEG-4 Visual
Format profile : Advanced Simple@L5
Format settings, BVOP : 1
Format settings, QPel : No
Format settings, GMC : No warppoints
Format settings, Matrix : Default (MPEG)
Codec ID : XVID
Codec ID/Hint : XviD
Duration : 1h 37mn
Bit rate : 1 694 Kbps
Width : 720 pixels
Height : 304 pixels
Display aspect ratio : 2.35:1
Frame rate : 23.976 fps
Color space : YUV
Chroma subsampling : 4:2:0
Bit depth : 8 bits
Scan type : Progressive
Compression mode : Lossy
Bits/(Pixel*Frame) : 0.323
Stream size : 1.15 GiB (79%)
Writing library : XviD 1.2.1 (UTC 2008-12-04)
Audio
ID : 1
Format : AC-3
Format/Info : Audio Coding 3
Mode extension : CM (complete main)
Format settings, Endianness : Big
Codec ID : 2000
Duration : 1h 37mn
Bit rate mode : Constant
Bit rate : 448 Kbps
Channel(s) : 6 channels
Channel positions : Front: L C R, Side: L R, LFE
Sampling rate : 48.0 KHz
Compression mode : Lossy
Stream size : 311 MiB (21%)
Alignment : Split accross interleaves
Interleave, duration : 42 ms (1.00 video frame)
Interleave, preload duration : 500 ms

Скриншот c названием фильма

[teatrix.ru].t10855.torrent 
Торрент: Зарегистрирован [ 2015-11-26 11:25 ] · CDDC92156CC227F466243549640D3425EB4A49AB

Скачать .torrent

Скачать

15 KB

Статус: проверено
Скачан: 0 раз
Размер: 1.46 GB
terms.php



Быстрый ответ

Имя:

      
Для отправки сообщений необходимо включить JavaScript
Показать сообщения:    

Текущее время: 10-Дек 08:04

Часовой пояс: UTC + 3


Вы можете начинать темы
Вы можете отвечать на сообщения
Вы не можете редактировать свои сообщения
Вы не можете удалять свои сообщения
Вы не можете голосовать в опросах
Вы не можете прикреплять файлы к сообщениям
Вы можете скачивать файлы