Черная бурка (Фарид Бикчантаев) [2002 г., драма, SATRip] Татарский академический театр имени Галиаскара Камала


 

[Цитировать]

Загадочный мужчина Название театра: Татарский академический театр имени Галиаскара Камала.
Год выпуска: 2002.
Жанр: драма.
Продолжительность: 02:32:10.
Режиссер: Фарид Бикчантаев.
Действующие лица и исполнители:
Беша - Алмаз Гараев,
Тузар - Искандер Хайруллин,
Пастух - Радик Бариев,
Чобр - Ринат Тазетдинов,
Чобра - Люция Хамитова,
Дигура - Ляйсан Рахимова,
Кико - Асхат Хисматов,
Кваркан - Равиль Шарафи,
Буретта - Алсу Гайнуллина,
Фирус - Ильтазар Мухаматгалиев.
О спектакле:
Герои спектакля - звери, наделенные даром речи: пес Тузар, ворон Квар-Кан, крот Фирус, волки Чобр и Чобра, зайчиха Дигура, осел Кико и другие. На людей они похожи не только потому, что умеют говорить, но и повадками, характерами. Известный со времен Эзопа прием - в образах зверей зашифровать типажи людей, сатирически сгустить манеры общения, жизненные философии разных видов. Впрочем, есть и герой-человек - это Пастух. Спускаясь на зиму с горных пастбищ, собирая отару, он теряет бурку. Верный пес Тузар находит ее и охраняет в течение всей зимы, без сна и пищи... Преданность у собаки в крови. Оценит ли ее хозяин - другой вопрос. Но Тузар выбирает верность взамен любви, отказывается от перспективы жить в волчьей стае со своей возлюбленной волчицей Чибар.
Дополнительная информация:
Страна: Россия .
Выпущено: Культура.рф.
Награды и номинации:
• Гран-при на VIII Международном фестивале тюркских народов "Науруз",
• 2007, Москва - Гран-при, лучшая режиссура, лучший актер на II Всероссийском фестивале "Музыкальное сердце театра",
• 2008, Брест - Гран-при и лучшая мужская роль на XIII Международном фестивале "Белая Вежа".
Автор: Геор Хугаев.
Перевод Юныса Сафиуллина.
Художник: Сергей Скоморохов.
Хореограф-репетитор: Ильдус Габдрахманов.
Автор текстов песен: Ильтазар Мухаматгалиев.
Композитор: Масгуда Шамсутдинова.
Балетмейстер: Олег Николаев (г. Москва).
Художник по костюмам: Людмила Волкова.

О спектакле.
Релиз

Качество видео:...SATRip
Формат:.................AVI
Видео:..720x400 (1.80:1), 25.025 fps, XviD MPEG-4 ~1151 kbps avg, 0.16 bit/pixel
Аудио:..44.100 kHz, MPEG Layer 3, 2 ch, ~128.00 kbps avg

Отчет Media Info

General
Complete name : Chernaya.burka_Tatarskij.GAT.im.Kamala.2002.XviD.SATRip.fenixclub.avi
Format : AVI
Format/Info : Audio Video Interleave
File size : 1.37 GiB
Duration : 2h 32mn
Overall bit rate : 1 289 Kbps
Writing application : VirtualDubModRus 1.5.10.2 (build 2542/release)
Writing library : VirtualDubMod build 2542/release
Video
ID : 0
Format : MPEG-4 Visual
Format profile : Advanced Simple@L5
Format settings, BVOP : 2
Format settings, QPel : No
Format settings, GMC : No warppoints
Format settings, Matrix : Default (MPEG)
Codec ID : XVID
Codec ID/Hint : XviD
Duration : 2h 32mn
Bit rate : 1 150 Kbps
Width : 720 pixels
Height : 400 pixels
Display aspect ratio : 16:9
Frame rate : 25.000 fps
Original frame rate : 25.032 fps
Color space : YUV
Chroma subsampling : 4:2:0
Bit depth : 8 bits
Scan type : Progressive
Compression mode : Lossy
Bits/(Pixel*Frame) : 0.160
Stream size : 1.22 GiB (89%)
Writing library : XviD 73
Audio
ID : 1
Format : MPEG Audio
Format version : Version 1
Format profile : Layer 3
Codec ID : 55
Codec ID/Hint : MP3
Duration : 2h 32mn
Bit rate mode : Constant
Bit rate : 128 Kbps
Channel(s) : 2 channels
Sampling rate : 44.1 KHz
Compression mode : Lossy
Stream size : 139 MiB (10%)
Alignment : Split accross interleaves
Interleave, duration : 40 ms (1.00 video frame)
Interleave, preload duratio : 500 ms
Writing library : LAME3.99r
Encoding settings : -m s -V 4 -q 2 -lowpass 17 -b 128

Скриншоты


Альтернативный хост





Показать сообщения:    

Текущее время: 09-Дек 08:49

Часовой пояс: UTC + 3


Вы не можете начинать темы
Вы не можете отвечать на сообщения
Вы не можете редактировать свои сообщения
Вы не можете удалять свои сообщения
Вы не можете голосовать в опросах
Вы не можете прикреплять файлы к сообщениям
Вы не можете скачивать файлы