Ведьмы / The Witches / Le streghe (Лукино Висконти / Luchino Visconti, Мауро Болоньини / Mauro Bolognini) [1967, Италия, Франция, комедия, драма, DVDRip] MVO (5 канал) + AVO (Янкелевич) + original Ita


Статистика раздачи [Обновить пиров]
Размер:  2.19 GB   |    Зарегистрирован:  1 год   |    Скачан:  0 раз

Полного источника не было: Никогда

Личеров:  1  [  0 KB/s  ]   Подробная статистика пиров
 
   
 
 
 

[Цитировать]

Ведьмы / The Witches / Le streghe
Страна: Италия, Франция
Жанр: комедия, драма, мелодрама
Год выпуска: 1967
Продолжительность: 01:51:38
Перевод: Профессиональный (многоголосый закадровый) - ТРК «Петербург - 5 канал»
Перевод: Авторский (одноголосый закадровый) - Роман Янкелевич
Cубтитры: нет
Оригинальная аудиодорожка: итальянский

Режиссер: Лукино Висконти / Luchino Visconti, Мауро Болоньини / Mauro Bolognini, Пьер Паоло Пазолини / Pier Paolo Pasolini, Франко Росси / Franco Rossi, Витторио Де Сика / Vittorio De Sica
В ролях: Сильвана Мангано, Анни Жирардо, Франcиско Рабал, Массимо Джиротти, Лесли Френч, Хельмут Бергер, Альберто Сорди, Тото, Нинетто Даволи, Марио Чиприани, Лаура Бетти, Луиджи Леони, Клинт Иствуд
Описание: Это коллекция из пяти независимых киноновелл, снятых пятью режиссерами — классиками итальянского кинематографа.
Новелла «Ведьма, сожженная заживо»: Скрываясь от всеобщего внимания, известная актриса приезжает в роскошный дом друзей в горах. Здесь она узнает, что беременна…
Новелла «Чувство гражданского долга»: Пострадавшего в автокатастрофе водителя сажает в свою малолитражку молодая женщина и мчит, не снижая скорости, по улицам Рима, оставляя позади больницы и травмпункты…
Новелла «Так Земля выглядит с Луны»: Недавно овдовевший отец и его сын ищут для себя идеальную жену и мать. Вскоре они находят подходящую кандидатуру — глухонемую женщину с зелеными волосами…
Новелла «Сицилийская красавица»: Упрямая и гордая женщина выдает своему отцу имя мужчины, «соблазнившего ее взглядом». Начинается кровопролитие…
Новелла «Самый обычный вечер»: После десяти лет брака красавица-жена убегает от наскучившего мужа в мир своих фантазий…

Качество видео: DVDRip
Формат видео: AVI
Видео: 704x400 (1.76:1), 23.976 fps, XviD build 73 ~2212 kbps avg, 0.33 bit/pixel
Аудио: 48 kHz, AC3 Dolby Digital, 2/0 (L,R) ch, ~192 kbps - многоголосый
Аудио: 48 kHz, AC3 Dolby Digital, 2/0 (L,R) ch, ~192 kbps - авторский
Аудио: 48 kHz, AC3 Dolby Digital, 2/0 (L,R) ch, ~192 kbps - оригинал

MediaInfo

Общее
Полное имя : H:\Le.streghe.1967.dvdrip_[2.18]_[teko].avi
Формат : AVI
Формат/Информация : Audio Video Interleave
Профиль формата : OpenDML
Размер файла : 2,19 Гбайт
Продолжительность : 1 ч. 51 м.
Общий поток : 2808 Кбит/сек
Программа кодирования : VirtualDubMod 1.5.10.3 | www.virtualdub-fr.org || (build 2550/release)
Библиотека кодирования : VirtualDubMod build 2550/release
Видео
Идентификатор : 0
Формат : MPEG-4 Visual
Профиль формата : Advanced Simple@L5
Параметр BVOP формата : 1
Параметр QPel формата : Нет
Параметр GMC формата : Без точки перехода
Параметр матрицы формата : Выборочная
Идентификатор кодека : XVID
Идентификатор кодека/Подсказка : XviD
Продолжительность : 1 ч. 51 м.
Битрейт : 2208 Кбит/сек
Ширина : 704 пикселя
Высота : 400 пикселей
Соотношение сторон : 16:9
Частота кадров : 23,976 кадра/сек
Цветовое пространство : YUV
Субдискретизация насыщенности : 4:2:0
Битовая глубина : 8 бит
Тип развёртки : Прогрессивная
Метод сжатия : С потерями
Бит/(Пиксели*Кадры) : 0.327
Размер потока : 1,72 Гбайт (79%)
Библиотека кодирования : XviD 73
Аудио #1
Идентификатор : 1
Формат : AC-3
Формат/Информация : Audio Coding 3
Расширение режима : CM (complete main)
Параметр Endianness формата : Big
Идентификатор кодека : 2000
Продолжительность : 1 ч. 51 м.
Вид битрейта : Постоянный
Битрейт : 192 Кбит/сек
Каналы : 2 канала
Расположение каналов : Front: L R
Частота : 48,0 КГц
Битовая глубина : 16 бит
Метод сжатия : С потерями
Размер потока : 153 Мбайт (7%)
Выравнивание : Разделение по промежуткам
Продолжительность промежутка : 42 мс. (1,00 видеокадр)
Время предзагрузки промежутка : 500 мс.
Аудио #2
Идентификатор : 2
Формат : AC-3
Формат/Информация : Audio Coding 3
Расширение режима : CM (complete main)
Параметр Endianness формата : Big
Идентификатор кодека : 2000
Продолжительность : 1 ч. 51 м.
Вид битрейта : Постоянный
Битрейт : 192 Кбит/сек
Каналы : 2 канала
Расположение каналов : Front: L R
Частота : 48,0 КГц
Битовая глубина : 16 бит
Метод сжатия : С потерями
Размер потока : 153 Мбайт (7%)
Выравнивание : Разделение по промежуткам
Продолжительность промежутка : 42 мс. (1,00 видеокадр)
Время предзагрузки промежутка : 500 мс.
Аудио #3
Идентификатор : 3
Формат : AC-3
Формат/Информация : Audio Coding 3
Расширение режима : CM (complete main)
Параметр Endianness формата : Big
Идентификатор кодека : 2000
Продолжительность : 1 ч. 51 м.
Вид битрейта : Постоянный
Битрейт : 192 Кбит/сек
Каналы : 2 канала
Расположение каналов : Front: L R
Частота : 48,0 КГц
Битовая глубина : 16 бит
Метод сжатия : С потерями
Размер потока : 153 Мбайт (7%)
Выравнивание : Разделение по промежуткам
Продолжительность промежутка : 42 мс. (1,00 видеокадр)
Время предзагрузки промежутка : 500 мс.
[teatrix.ru].t10858.torrent 
Торрент: Зарегистрирован [ 2015-11-26 11:25 ] · AF3B735D5F3F65BDA64E43E16E219CA5D49AB290

Скачать .torrent

Скачать

11 KB

Статус: проверено
Скачан: 0 раз
Размер: 2.19 GB
terms.php



Быстрый ответ

Имя:

      
Для отправки сообщений необходимо включить JavaScript
Показать сообщения:    

Текущее время: 11-Дек 09:11

Часовой пояс: UTC + 3


Вы можете начинать темы
Вы можете отвечать на сообщения
Вы не можете редактировать свои сообщения
Вы не можете удалять свои сообщения
Вы не можете голосовать в опросах
Вы не можете прикреплять файлы к сообщениям
Вы можете скачивать файлы