(Classical) Jean Sibelius - Pelleas et Melisande / Ян Сибелиус - Пеллеас и Мелизанда (Musik zu einer Szene; Valse lyrique; Valse chevaleresque - Pia Pajala, Sari Nordqvist, Turku Philharmonic Orchestra, Leif Segerstam) - 2015, FLAC (image+.cue) lossl


 

[Цитировать]

Jean Sibelius - Pelléas et Mélisande; Musik zu einer Szene; Valse lyrique; Valse chevaleresque - Pia Pajala, Sari Nordqvist, Turku Philharmonic Orchestra, Leif Segerstam
Жанр: Classical
Год издания диска: 2015
Издатель (лейбл): Naxos
Номер по каталогу: 8.573301
Дата записи: 2014
Аудиокодек: FLAC
Тип рипа: image+.cue
Битрейт аудио: lossless
Продолжительность: 57:49
Источник: собственный рип
Наличие сканов в содержимом раздачи: да
Треклист:
Jean Sibelius (1865-1957)
[1]-[10] Pelléas et Mélisande – Complete incidental music, JS 147 (1905)
[11] Musik zu einer Szene (1904)
[12] Valse lyrique, Op. 96a (1921)
[13] Autrefois – Scène pastorale, Op. 96b (1919)
[14] Valse chevaleresque, Op. 96c (1921)
[15] Morceau romantique sur un motif de Monsieur Jakob von Julin, JS 135/a (1925)
Исполнители:
Pia Pajala soprano
Sari Nordqvist mezzo-soprano
Turku Philharmonic Orchestra
Leif Segerstam

Лог создания рипа

Exact Audio Copy V1.1 from 23. June 2015
EAC extraction logfile from 21. November 2015, 21:08
Turku Philharmonic Orchestra, Leif Segerstam / Sibelius - Pelléas et Mélisande
Used drive : HL-DT-STDVDRAM GU70N Adapter: 1 ID: 0
Read mode : SecureUtilize accurate stream : YesDefeat audio cache : YesMake use of C2 pointers : No
Read offset correction : 48Overread into Lead-In and Lead-Out : NoFill up missing offset samples with silence : YesDelete leading and trailing silent blocks : NoNull samples used in CRC calculations : YesUsed interface : Native Win32 interface for Win NT & 2000
Used output format : User Defined EncoderSelected bitrate : 128 kBit/sQuality : HighAdd ID3 tag : NoCommand line compressor : C:\Program Files (x86)\Exact Audio Copy\Flac\flac.exeAdditional command line options : -V -8 -T "Date=%year%" -T "Genre=%genre%" %source%
TOC of the extracted CD
Track | Start | Length | Start sector | End sector --------------------------------------------------------- 1 | 0:00.00 | 3:42.57 | 0 | 16706 2 | 3:42.57 | 4:34.42 | 16707 | 37298 3 | 8:17.24 | 2:26.59 | 37299 | 48307 4 | 10:44.08 | 2:04.22 | 48308 | 57629 5 | 12:48.30 | 2:29.33 | 57630 | 68837 6 | 15:17.63 | 2:23.19 | 68838 | 79581 7 | 17:41.07 | 2:07.55 | 79582 | 89161 8 | 19:48.62 | 3:11.61 | 89162 | 103547 9 | 23:00.48 | 3:17.64 | 103548 | 118386 10 | 26:18.37 | 7:24.41 | 118387 | 151727 11 | 33:43.03 | 6:20.34 | 151728 | 180261 12 | 40:03.37 | 4:48.31 | 180262 | 201892 13 | 44:51.68 | 5:35.28 | 201893 | 227045 14 | 50:27.21 | 4:49.23 | 227046 | 248743 15 | 55:16.44 | 2:30.31 | 248744 | 260024
Range status and errors
Selected range
Filename C:\temp\Naxos_8.573301 - Sibelius - Pelleas et Melisande\Sibelius - Pelleas et Melisande.wav
Peak level 100.0 % Extraction speed 5.1 X Range quality 100.0 % Test CRC 3F180DA4 Copy CRC 3F180DA4 Copy OK
No errors occurred
AccurateRip summary
Track 1 accurately ripped (confidence 1) [6DA45125] (AR v2)Track 2 accurately ripped (confidence 1) [A0AC6E12] (AR v2)Track 3 accurately ripped (confidence 1) [6389ABDE] (AR v2)Track 4 accurately ripped (confidence 1) [E26396DA] (AR v2)Track 5 accurately ripped (confidence 1) [E2FD04BB] (AR v2)Track 6 accurately ripped (confidence 1) [AB883EF5] (AR v2)Track 7 accurately ripped (confidence 1) [D2C8324C] (AR v2)Track 8 accurately ripped (confidence 1) [36EA6FB4] (AR v2)Track 9 accurately ripped (confidence 1) [237AB9A7] (AR v2)Track 10 accurately ripped (confidence 1) [F782EBE0] (AR v2)Track 11 accurately ripped (confidence 1) [EEEA8801] (AR v2)Track 12 not present in databaseTrack 13 accurately ripped (confidence 1) [66BD8F1E] (AR v2)Track 14 accurately ripped (confidence 1) [D319FD9A] (AR v2)Track 15 accurately ripped (confidence 1) [71047A8C] (AR v2)
14 track(s) accurately ripped 1 track(s) not present in the AccurateRip database
Some tracks could not be verified as accurate
End of status report
==== Log checksum 447B2DCF8BFDB7C27D8CD526EB42D21D5F5BA540471593037745E87655D82576 ====



Показать сообщения:    

Текущее время: 02-Дек 23:11

Часовой пояс: UTC + 3


Вы не можете начинать темы
Вы не можете отвечать на сообщения
Вы не можете редактировать свои сообщения
Вы не можете удалять свои сообщения
Вы не можете голосовать в опросах
Вы не можете прикреплять файлы к сообщениям
Вы не можете скачивать файлы