(Classical Crossover, Vocal Pop) Il Divo - Amor & Pasion - 2015, FLAC (tracks+.cue) lossless


 

[Цитировать]

Il Divo / Amor & Pasión
Жанр: Classical Crossover, Vocal Pop
Год издания диска: 2015
Издатель (лейбл): Syco Music
Номер по каталогу: SICP-30850
Страна: UK
Аудиокодек: FLAC
Тип рипа: tracks+.cue
Битрейт аудио: lossless
Продолжительность: 43:07
Источник: CD (what.cd)
Наличие сканов в содержимом раздачи: нет
Треклист:
01. Por una Cabeza
02. Abrazame
03. Don’t Wanna Lose You (Si Voy a Perderte)
04. Quizás, Quizás, Quizás (Perhaps, Perhaps, Perhaps)
05. Bésame Mucho
06. Quién Será (Sway)
07. Volver
08. Historia de un Amor
09. Eres Tu
10. Contigo en la Distancia
11. To All the Girls I’ve Loved Before (A Las Mujeres Que Amé)
12. Himno de la Alegría (Ode to Joy)
http://ildivo.com/
https://en.wikipedia.org/wiki/Il_Divo

Лог создания рипа

Exact Audio Copy V1.1 from 23. June 2015
EAC extraction logfile from 25. November 2015, 21:41
Il Divo / Amor & Pasión
Used drive : PIONEER BD-RW BDR-TD05 Adapter: 1 ID: 0
Read mode : SecureUtilize accurate stream : YesDefeat audio cache : YesMake use of C2 pointers : No
Read offset correction : 667Overread into Lead-In and Lead-Out : NoFill up missing offset samples with silence : YesDelete leading and trailing silent blocks : NoNull samples used in CRC calculations : YesUsed interface : Native Win32 interface for Win NT & 2000Gap handling : Appended to previous track
Used output format : User Defined EncoderSelected bitrate : 1024 kBit/sQuality : HighAdd ID3 tag : NoCommand line compressor : C:\Program Files (x86)\Exact Audio Copy\Flac\flac.exeAdditional command line options : -8 -V -T "ARTIST=%artist%" -T "TITLE=%title%" -T "ALBUM=%albumtitle%" -T "DATE=%year%" -T "TRACKNUMBER=%tracknr%" -T "GENRE=%genre%" -T "PERFORMER=%albuminterpret%" -T "COMPOSER=%composer%" %haslyrics%--tag-from-file=LYRICS="%lyricsfile%"%haslyrics% -T "ALBUMARTIST=%albumartist%" -T "DISCNUMBER=%cdnumber%" -T "TOTALDISCS=%totalcds%" -T "TOTALTRACKS=%numtracks%" -T "COMMENT=%comment%" %source% -o %dest%
TOC of the extracted CD
Track | Start | Length | Start sector | End sector --------------------------------------------------------- 1 | 0:00.00 | 3:45.15 | 0 | 16889 2 | 3:45.15 | 3:29.14 | 16890 | 32578 3 | 7:14.29 | 4:49.01 | 32579 | 54254 4 | 12:03.30 | 3:16.12 | 54255 | 68966 5 | 15:19.42 | 2:51.41 | 68967 | 81832 6 | 18:11.08 | 3:01.66 | 81833 | 95473 7 | 21:12.74 | 3:13.09 | 95474 | 109957 8 | 24:26.08 | 3:30.40 | 109958 | 125747 9 | 27:56.48 | 4:05.70 | 125748 | 144192 10 | 32:02.43 | 2:52.28 | 144193 | 157120 11 | 34:54.71 | 4:33.72 | 157121 | 177667 12 | 39:28.68 | 3:43.07 | 177668 | 194399
Track 1
Filename T:\Il Divo - Amor & Pasion\01. Por una cabeza.wav
Pre-gap length 0:00:02.00
Peak level 100.0 % Extraction speed 2.7 X Track quality 100.0 % Test CRC CC12F822 Copy CRC CC12F822 Track not present in AccurateRip database Copy OK
Track 2
Filename T:\Il Divo - Amor & Pasion\02. Abrázame.wav
Pre-gap length 0:00:01.05
Peak level 99.6 % Extraction speed 2.9 X Track quality 100.0 % Test CRC 697A2106 Copy CRC 697A2106 Track not present in AccurateRip database Copy OK
Track 3
Filename T:\Il Divo - Amor & Pasion\03. Don't Wanna Lose You (Si voy a perderte).wav
Pre-gap length 0:00:01.58
Peak level 99.7 % Extraction speed 3.4 X Track quality 100.0 % Test CRC B36CC3DE Copy CRC B36CC3DE Track not present in AccurateRip database Copy OK
Track 4
Filename T:\Il Divo - Amor & Pasion\04. Quizás, quizás, quizás (Perhaps, Perhaps, Perhaps).wav
Pre-gap length 0:00:02.00
Peak level 99.6 % Extraction speed 3.4 X Track quality 100.0 % Test CRC A198589C Copy CRC A198589C Track not present in AccurateRip database Copy OK
Track 5
Filename T:\Il Divo - Amor & Pasion\05. Bésame mucho.wav
Pre-gap length 0:00:01.16
Peak level 99.6 % Extraction speed 3.5 X Track quality 100.0 % Test CRC BFAA34E6 Copy CRC BFAA34E6 Track not present in AccurateRip database Copy OK
Track 6
Filename T:\Il Divo - Amor & Pasion\06. Quién será (Sway).wav
Pre-gap length 0:00:00.45
Peak level 99.6 % Extraction speed 3.6 X Track quality 100.0 % Test CRC 203DD2CB Copy CRC 203DD2CB Track not present in AccurateRip database Copy OK
Track 7
Filename T:\Il Divo - Amor & Pasion\07. Volver.wav
Pre-gap length 0:00:00.66
Peak level 99.6 % Extraction speed 3.9 X Track quality 100.0 % Test CRC 72AD1F91 Copy CRC 72AD1F91 Track not present in AccurateRip database Copy OK
Track 8
Filename T:\Il Divo - Amor & Pasion\08. Historia de un amor.wav
Pre-gap length 0:00:00.82
Peak level 99.6 % Extraction speed 4.1 X Track quality 100.0 % Test CRC 5EA4DE82 Copy CRC 5EA4DE82 Track not present in AccurateRip database Copy OK
Track 9
Filename T:\Il Divo - Amor & Pasion\09. Eres tú.wav
Pre-gap length 0:00:01.60
Peak level 99.7 % Extraction speed 4.4 X Track quality 100.0 % Test CRC 751F3619 Copy CRC 751F3619 Track not present in AccurateRip database Copy OK
Track 10
Filename T:\Il Divo - Amor & Pasion\10. Contigo en la distancia.wav
Pre-gap length 0:00:01.97
Peak level 99.6 % Extraction speed 4.3 X Track quality 100.0 % Test CRC 55123C7D Copy CRC 55123C7D Track not present in AccurateRip database Copy OK
Track 11
Filename T:\Il Divo - Amor & Pasion\11. To All the Girls I've Loved Before (A las mujeres que amé).wav
Pre-gap length 0:00:00.92
Peak level 99.6 % Extraction speed 4.6 X Track quality 100.0 % Test CRC 5EBC9735 Copy CRC 5EBC9735 Track not present in AccurateRip database Copy OK
Track 12
Filename T:\Il Divo - Amor & Pasion\12. Himno de la alegría (Ode to Joy).wav
Pre-gap length 0:00:01.52
Peak level 99.6 % Extraction speed 4.1 X Track quality 99.9 % Test CRC 6BC1EE5F Copy CRC 6BC1EE5F Track not present in AccurateRip database Copy OK
None of the tracks are present in the AccurateRip database
No errors occurred
End of status report
---- CUETools DB Plugin V2.1.6
[CTDB TOCID: I61RpcovdwWTSPsncvvwgx4F5xI-] foundSubmit result: I61RpcovdwWTSPsncvvwgx4F5xI- has been confirmedTrack | CTDB Status 1 | (5/5) Accurately ripped 2 | (5/5) Accurately ripped 3 | (5/5) Accurately ripped 4 | (5/5) Accurately ripped 5 | (5/5) Accurately ripped 6 | (5/5) Accurately ripped 7 | (5/5) Accurately ripped 8 | (5/5) Accurately ripped 9 | (5/5) Accurately ripped 10 | (5/5) Accurately ripped 11 | (5/5) Accurately ripped 12 | (5/5) Accurately ripped
==== Log checksum 7999EBB1D6CA8205AAF9C975FFB4AB99ACA56F3DE7201474F871B74CB2F07CEA ====

Содержание индексной карты (.CUE)

REM GENRE OperaREM DATE 2015REM DISCID A50A200CREM COMMENT "ExactAudioCopy v1.1"PERFORMER "Il Divo"TITLE "Amor & PasiЁ®n"FILE "01. Por una cabeza.wav" WAVE TRACK 01 AUDIO TITLE "Por una cabeza" PERFORMER "Il Divo" ISRC GBHMU1500127 INDEX 01 00:00:00 TRACK 02 AUDIO TITLE "AbrЁўzame" PERFORMER "Il Divo" ISRC GBHMU1500128 INDEX 00 03:44:11FILE "02. AbrЁўzame.wav" WAVE INDEX 01 00:00:00 TRACK 03 AUDIO TITLE "Don't Wanna Lose You (Si voy a perderte)" PERFORMER "Il Divo" ISRC GBHMU1500121 INDEX 00 03:27:45FILE "03. Don't Wanna Lose You (Si voy a perderte).wav" WAVE INDEX 01 00:00:00 TRACK 04 AUDIO TITLE "QuizЁўs, quizЁўs, quizЁўs (Perhaps, Perhaps, Perhaps)" PERFORMER "Il Divo" ISRC GBHMU1500126 INDEX 00 04:47:01FILE "04. QuizЁўs, quizЁўs, quizЁўs (Perhaps, Perhaps, Perhaps).wav" WAVE INDEX 01 00:00:00 TRACK 05 AUDIO TITLE "BЁ¦same mucho" PERFORMER "Il Divo" ISRC GBHMU1500122 INDEX 00 03:15:00FILE "05. BЁ¦same mucho.wav" WAVE INDEX 01 00:00:00 TRACK 06 AUDIO TITLE "QuiЁ¦n serЁў (Sway)" PERFORMER "Il Divo" ISRC GBHMU1500124 INDEX 00 02:51:07FILE "06. QuiЁ¦n serЁў (Sway).wav" WAVE INDEX 01 00:00:00 TRACK 07 AUDIO TITLE "Volver" PERFORMER "Il Divo" ISRC GBHMU1500125 INDEX 00 03:01:16FILE "07. Volver.wav" WAVE INDEX 01 00:00:00 TRACK 08 AUDIO TITLE "Historia de un amor" PERFORMER "Il Divo" ISRC GBHMU1500130 INDEX 00 03:12:22FILE "08. Historia de un amor.wav" WAVE INDEX 01 00:00:00 TRACK 09 AUDIO TITLE "Eres tЁІ" PERFORMER "Il Divo" ISRC GBHMU1500131 INDEX 00 03:28:70FILE "09. Eres tЁІ.wav" WAVE INDEX 01 00:00:00 TRACK 10 AUDIO TITLE "Contigo en la distancia" PERFORMER "Il Divo" ISRC GBHMU1500129 INDEX 00 04:03:72FILE "10. Contigo en la distancia.wav" WAVE INDEX 01 00:00:00 TRACK 11 AUDIO TITLE "To All the Girls I've Loved Before (A las mujeres que amЁ¦)" PERFORMER "Il Divo" ISRC GBHMU1500123 INDEX 00 02:51:34FILE "11. To All the Girls I've Loved Before (A las mujeres que amЁ¦).wav" WAVE INDEX 01 00:00:00 TRACK 12 AUDIO TITLE "Himno de la alegrЁЄa (Ode to Joy)" PERFORMER "Il Divo" ISRC GBHMU1500132 INDEX 00 04:32:33FILE "12. Himno de la alegrЁЄa (Ode to Joy).wav" WAVE INDEX 01 00:00:00

Об альбоме (сборнике)

'Amor & Pasioin' is the new album from Il Divo, the original and still the best classical cross over group in the world. Il Divo have recorded a body of work spanning a century of traditional tangos, smoldering boleros and classic mambas. The album was made with Columbian producer and multiple Latin Grammy winner Julio Reyes Copello.
'Amor & Pasion' hails from Spain and Cuba, and from Central and South America. The flavors and sultry rhythms of Spain and Cuba, Argentina and Mexico give a nod to the quartet's beginnings, while also marking an exciting new chapter in their career. 'Amor & Pasion' is an album full of love and romance. The tracks that make up the album are mostly familiar hits such as Julio Iglesias' iconic A Las Mujeres Que Yo Ame (To All the Girls I've Loved Before) and Gloria Estefan's resonant Si Voy A Perderte (Don't Wanna Lose You), along with Himno De La Alegria, an exciting Latin treatment of Beethoven's Ode To Joy and one of the most classic tangos of all time, Por Una Cabeza which was written in 1935 and was used in both Schindler's List and the Al Pacino film 'Scent Of A Woman'.
Il Divo spearheaded an entirely new musical genre with their groundbreaking debut album in 2004. The multi national four piece group have gone on to achieve unparalleled success around the world with 30 millions album sales, 50 # 1 Records, and 160 gold and platinum awards in over 33 countries and four sold out world tours.
'Amor & Pasion' is Il Divo's seventh studio album and their most ambitious yet.



Показать сообщения:    

Текущее время: 11-Дек 03:21

Часовой пояс: UTC + 3


Вы не можете начинать темы
Вы не можете отвечать на сообщения
Вы не можете редактировать свои сообщения
Вы не можете удалять свои сообщения
Вы не можете голосовать в опросах
Вы не можете прикреплять файлы к сообщениям
Вы не можете скачивать файлы