Братья / Brødre / Brothers (Сюзанна Бир / Susanne Bier) [2004, Дания, Швеция, Великобритания, Норвегия, драма, военный, DVDRip] DVO + Original Dan


Статистика раздачи [Обновить пиров]
Размер:  2.18 GB   |    Зарегистрирован:  1 год   |    Скачан:  0 раз

Полного источника не было: Никогда

Личеров:  1  [  0 KB/s  ]   Подробная статистика пиров
 
 
 
 

[Цитировать]

Братья / Brødre / Brothers
Страна: Дания, Швеция, Великобритания, Норвегия
Жанр: драма, военный
Год выпуска: 2004
Продолжительность: 01:52:15
Перевод: Профессиональный (двухголосый закадровый) студия Ульпаней Эльром
Cубтитры: нет
Оригинальная аудиодорожка: датский
Режиссер: Сюзанна Бир / Susanne Bier
В ролях: Конни Нильсен, Ульрих Томсен, Николай Ли Каас, Сара Джуел Вернер, Rebecca Logstrup, Бент Мейдинг, Солбьорг Ходжфельдт, Нильс Олсен, Пав Хенриксон, Ларс Хьортшо
О фильме: История двух братьев, старший из которых отправляется воевать в Афганистан, а младший берет на себя заботу о его жене и ребенке...
Доп. информация: http://www.imdb.com/title/tt0386342/
Награды и номинации:
Сандэнс, 2005 год
Победитель (1):
Приз зрительских симпатий в категории «Драматический фильм» (Программа «Мировое кино»)
Номинации (1):
Гран-при в категории «Драматический фильм» (Программа «Мировое кино»)
Европейская киноакадемия, 2005 год
Номинации (7):
Лучший фильм
Лучшая мужская роль (Ульрих Томсен)
Лучшая женская роль (Конни Нильсен)
Лучший режиссер (Сюзанна Бир)
Лучший композитор (Юхан Сёдерквист)
Приз зрительских симпатий за лучшую мужскую роль (Ульрих Томсен)
Приз зрительских симпатий за лучшую женскую роль (Конни Нильсен)
Сан-Себастьян, 2004 год
Победитель (2):
Серебряная раковина за лучшую мужскую роль (Ульрих Томсен)
Серебряная раковина за лучшую женскую роль (Конни Нильсен)
Номинации (1):
Золотая раковина

Сэмпл: http://sendfile.su/1177398
Качество видео: DVDRip
Формат видео: AVI
Видео: 704x384 (1.83:1), 23,976 fps, XviD build 73 ~2124 kbps avg, 0.31 bit/pixel
Аудио #1: 48 kHz, AC3 Dolby Digital, 2/0 (L,R) ch, ~192 kbps avg - русский
Аудио #2: 48 kHz, AC3 Dolby Digital, 3/2 (L,C,R,l,r) + LFE ch, ~448 kbps - оригинал

MediaInfo

Общее
Полное имя : H:\Фильмы\Братья\Brothers.2004.DVDRip.avi
Формат : AVI
Формат/Информация : Audio Video Interleave
Профиль формата : OpenDML
Размер файла : 2,18 Гбайт
Продолжительность : 1 ч. 52 м.
Общий поток : 2782 Кбит/сек
Программа кодирования : VirtualDubMod 1.5.10.2 (build 2540/release)
Библиотека кодирования : VirtualDubMod build 2540/release
Авторское право : rip by Judas_X
Видео
Идентификатор : 0
Формат : MPEG-4 Visual
Профиль формата : Advanced Simple@L5
Параметр BVOP формата : 1
Параметр QPel формата : Нет
Параметр GMC формата : Без точки перехода
Параметр матрицы формата : Выборочная
Идентификатор кодека : XVID
Идентификатор кодека/Подсказка : XviD
Продолжительность : 1 ч. 52 м.
Битрейт : 2124 Кбит/сек
Ширина : 704 пикселя
Высота : 384 пикселя
Соотношение сторон : 1,85:1
Частота кадров : 25,000 кадров/сек
Цветовое пространство : YUV
Субдискретизация насыщенности : 4:2:0
Битовая глубина : 8 бит
Тип развёртки : Прогрессивная
Метод сжатия : С потерями
Бит/(Пиксели*Кадры) : 0.314
Размер потока : 1,67 Гбайт (76%)
Библиотека кодирования : XviD 73
Аудио #1
Идентификатор : 1
Формат : AC-3
Формат/Информация : Audio Coding 3
Расширение режима : CM (complete main)
Параметр Endianness формата : Big
Идентификатор кодека : 2000
Продолжительность : 1 ч. 52 м.
Вид битрейта : Постоянный
Битрейт : 192 Кбит/сек
Каналы : 2 канала
Расположение каналов : Front: L R
Частота : 48,0 КГц
Метод сжатия : С потерями
Размер потока : 154 Мбайт (7%)
Выравнивание : Разделение по промежуткам
Продолжительность промежутка : 40 мс. (1,00 видеокадр)
Время предзагрузки промежутка : 500 мс.
Аудио #2
Идентификатор : 2
Формат : AC-3
Формат/Информация : Audio Coding 3
Расширение режима : CM (complete main)
Параметр Endianness формата : Big
Идентификатор кодека : 2000
Продолжительность : 1 ч. 52 м.
Вид битрейта : Постоянный
Битрейт : 448 Кбит/сек
Каналы : 6 каналов
Расположение каналов : Front: L C R, Side: L R, LFE
Частота : 48,0 КГц
Метод сжатия : С потерями
Размер потока : 360 Мбайт (16%)
Выравнивание : Разделение по промежуткам
Продолжительность промежутка : 40 мс. (1,00 видеокадр)
Время предзагрузки промежутка : 500 мс.
[teatrix.ru].t10865.torrent 
Торрент: Зарегистрирован [ 2015-11-27 08:35 ] · 039760F115A56418F3F4D480C03444B980BD0CB8

Скачать .torrent

Скачать

11 KB

Статус: проверено
Скачан: 0 раз
Размер: 2.18 GB
terms.php



Быстрый ответ

Имя:

      
Для отправки сообщений необходимо включить JavaScript
Показать сообщения:    

Текущее время: 03-Дек 22:45

Часовой пояс: UTC + 3


Вы можете начинать темы
Вы можете отвечать на сообщения
Вы не можете редактировать свои сообщения
Вы не можете удалять свои сообщения
Вы не можете голосовать в опросах
Вы не можете прикреплять файлы к сообщениям
Вы можете скачивать файлы