Воскресение в понедельник (Юрий Маляцкий) [1969 г., телеспектакль-фельетон, TVRip]


 

[Цитировать]

Воскресение в понедельник Год выпуска: 1969.
Жанр: телеспектакль-фельетон.
Продолжительность: 00:42:40.
Режиссер: Юрий Маляцкий.
Действующие лица и исполнители:
Журналист - Вадим Яковлев,
Милиционер - Константин Зорин,
Матвеева - Елена Маркина,
Семён Данилович Петухов, управляющий КУКУ - Лев Лемке,
Фикусов, управляющий делами КУКУ - Павел Панков,
Главбух - Николай Карамышев,
Нина Павловна - Лариса Леонова,
Фаина Петровна - Светлана Мазовецкая,
Зазубрин, управдом - Георгий Штиль,
Психиатр - заслуженный артист РСФСР Михаил Храбров,
Регистраторша - Ольга Волкова,
Секретарша - Анна Воронова.
О спектакле:
По одноименной юмористической пьесе (1955) Владимира Дыховичного и Мориса Слободского.
Семён Данилыч Петухов, управляющий КУКУ (КУКУ при ГорКУКУРЕКУ - кустовое управление курортных учреждений при городском кустовом управлении кумысолечебных речных курортов) взял трёхдневный отпуск, чтобы жениться, но... потерял документы. Паспорт Петухова оказался при неизвестном погибшем гражданине, и теперь для восстановления в живых Семён Данилович должен представить официально заверенную справку, удостоверяющую, во-первых, что покойник не он, и, во-вторых, что он - не покойник.
Творческий дуэт Дыховичный—Слободской - поэты, прозаики, сценаристы, авторы нескольких совместных книг и текстов многочисленных популярных песен; ими были написаны эстрадные произведения в различных жанрах для пародийного театра "Синяя птичка", Московского театра миниатюр, Театра эстрады.
"...Фамилии эти были на слуху, причем именно в тандеме – Дыховичный и Слободской", "...водевили "Воскресенье в понедельник", "Гурий Львович Синичкин", "Друзья остаются друзьями", "Факир на час" пользовались большим успехом у тогдашних зрителей."
/Владимир Колганов, Иван Дыховичный. "Формула жизни"/

Дополнительная информация:
Страна: СССР .
Выпущено: Ленинградское телевидение.
Авторы: Владимир Дыховичный, Морис Слободской.
Ведущий оператор: М. Семенов.
Художник: Валентин Попов.
Релиз
Рип lesik689.

Качество видео:...TVRip
Формат:.................AVI
Видео:..640x480 (1.33:1), 25 fps, XviD build 64 ~1701 kbps avg, 0.22 bit/pixel
Аудио:..44.100 kHz, MPEG Layer 3, 2 ch, ~128.00 kbps avg

Отчет Media Info

General
Complete name : Voskreseniye.v.ponedel'nik.1968.XviD.WEB-DLRip.fenixclub.avi
Format : AVI
Format/Info : Audio Video Interleave
File size : 561 MiB
Duration : 42mn 39s
Overall bit rate : 1 839 Kbps
Writing application : VirtualDubMod 1.5.10.2 (build 2542/release)
Writing library : VirtualDubMod build 2542/release
Video
ID : 0
Format : MPEG-4 Visual
Format profile : Advanced Simple@L5
Format settings, BVOP : 2
Format settings, QPel : No
Format settings, GMC : No warppoints
Format settings, Matrix : Default (MPEG)
Codec ID : XVID
Codec ID/Hint : XviD
Duration : 42mn 39s
Bit rate : 1 702 Kbps
Width : 640 pixels
Height : 480 pixels
Display aspect ratio : 5:4
Original display aspect rat : 4:3
Frame rate : 25.000 fps
Color space : YUV
Chroma subsampling : 4:2:0
Bit depth : 8 bits
Scan type : Progressive
Compression mode : Lossy
Bits/(Pixel*Frame) : 0.222
Stream size : 519 MiB (93%)
Writing library : XviD 64
Audio
ID : 1
Format : MPEG Audio
Format version : Version 1
Format profile : Layer 3
Mode : Joint stereo
Mode extension : MS Stereo
Codec ID : 55
Codec ID/Hint : MP3
Duration : 42mn 39s
Bit rate mode : Constant
Bit rate : 128 Kbps
Channel(s) : 2 channels
Sampling rate : 44.1 KHz
Compression mode : Lossy
Delay relative to video : 5ms
Stream size : 39.0 MiB (7%)
Alignment : Split accross interleaves
Interleave, duration : 40 ms (1.00 video frame)
Interleave, preload duratio : 500 ms

Скриншоты


Альтернативный хост





Показать сообщения:    

Текущее время: 11-Дек 05:23

Часовой пояс: UTC + 3


Вы не можете начинать темы
Вы не можете отвечать на сообщения
Вы не можете редактировать свои сообщения
Вы не можете удалять свои сообщения
Вы не можете голосовать в опросах
Вы не можете прикреплять файлы к сообщениям
Вы не можете скачивать файлы