(Choral, Orchestral) Жозеф Ги Ропарц - Реквием / Joseph Guy Ropartz - Requiem, Psaume 129, Messe Breve (Choeur Vittoria D'Ile De France, Ensemble Jean-Walte, Michel Piquemal) - 1992, APE (image+.cue) lossless


Статистика раздачи [Обновить пиров]
Размер:  214 MB   |    Зарегистрирован:  1 год   |    Скачан:  0 раз

Полного источника не было: Никогда

 
   
 
 
 

[Цитировать]

Joseph Guy Ropartz - Requiem, Psaume 129, Messe Brève
Жанр: Choral, Orchestral
Страна-производитель диска: France
Год издания диска: 1992
Издатель (лейбл): Adda
Номер по каталогу: 581266
Дата записи: 1991
Аудиокодек: APE
Тип рипа: image+.cue
Битрейт аудио: lossless
Продолжительность: 60'42
Источник: скачано с
Наличие сканов в содержимом раздачи: да
Треклист:
Joseph Guy Ropartz (1864-1955)

Requiem pour soli, choerus et orchestre (1937-38)

1. I. Introit (5:18)
2. II. Kyrie (3:17)
3. III. Offertoire (5:43)
4. IV. Sanctus (4:04)
5. V. Pie jesu (2:35)
6. VI. Agnus Dei (6:31)
7. VII. Libera Me (6:30)
8. VIII. In paradisum (2:53)
Psaume 129 "De Profundis" (1941) (9:15)
Messe Brève en l'honneur de Sainte Anne (1921)
10. I. Kyrie 3:43
11. II. Gloria 4:27
12. III. Sanctus-Benedictus 3:09
13. IV. Agnus Catherine (2:56)
Исполнители:
Catherine Dubosc (soprano), Jacqueline Mayeur (mezzo)
Vincent Le Texier (baryton), François-Henri Houbart, orgue
Choeur Régional Vittoria D'Ile De France
Ensemble Instrumental Jean-Walte
Michel Piquemal, direction
enreg. avril 1991, Notre Dame de Paris

Лог создания рипа

Exact Audio Copy V0.99 prebeta 4 from 23. January 2008
EAC extraction logfile from 21. November 2009, 20:52
Jozeph-Guy Ropartz / Requiem_Psaume129_Missa brevis
Used drive : HL-DT-STDVDRAM GSA-4120B Adapter: 0 ID: 0
Read mode : SecureUtilize accurate stream : YesDefeat audio cache : YesMake use of C2 pointers : No
Read offset correction : 667Overread into Lead-In and Lead-Out : NoFill up missing offset samples with silence : YesDelete leading and trailing silent blocks : NoNull samples used in CRC calculations : NoUsed interface : Installed external ASPI interface
Used output format : Monkey's Audio Lossless Encoder v3.99 DLLSample format : Fast Lossless Compression
TOC of the extracted CD
Track | Start | Length | Start sector | End sector --------------------------------------------------------- 1 | 0:00.32 | 5:19.53 | 32 | 24009 2 | 5:20.10 | 3:17.10 | 24010 | 38794 3 | 8:37.20 | 5:42.60 | 38795 | 64504 4 | 14:20.05 | 4:04.42 | 64505 | 82846 5 | 18:24.47 | 2:35.40 | 82847 | 94511 6 | 21:00.12 | 6:31.60 | 94512 | 123896 7 | 27:31.72 | 6:31.35 | 123897 | 153256 8 | 34:03.32 | 2:53.18 | 153257 | 166249 9 | 36:56.50 | 9:14.52 | 166250 | 207851 10 | 46:11.27 | 3:48.55 | 207852 | 225006 11 | 50:00.07 | 4:32.00 | 225007 | 245406 12 | 54:32.07 | 3:14.50 | 245407 | 260006 13 | 57:46.57 | 2:55.50 | 260007 | 273181
Range status and errors
Selected range
Filename C:\TEMP\Jozeph-Guy Ropartz - Requiem_Psaume129_Missa brevis.ape
Peak level 85.8 % Range quality 99.9 % Copy CRC 452DEC2B Copy OK
No errors occurred
AccurateRip summary
Track 1 accurately ripped (confidence 1) [41A40DDA]Track 2 accurately ripped (confidence 1) [126D3D81]Track 3 accurately ripped (confidence 1) [C7A1DC9A]Track 4 accurately ripped (confidence 1) [BA9ADAEB]Track 5 accurately ripped (confidence 1) [9F08FA0F]Track 6 accurately ripped (confidence 1) [2ADFAE4C]Track 7 accurately ripped (confidence 1) [23CBD106]Track 8 accurately ripped (confidence 1) [3A90D6C6]Track 9 accurately ripped (confidence 1) [D0A94CD6]Track 10 accurately ripped (confidence 1) [1E6410C9]Track 11 accurately ripped (confidence 1) [207859D3]Track 12 accurately ripped (confidence 1) [4E9ED479]Track 13 accurately ripped (confidence 1) [3EA4FA54]
All tracks accurately ripped
End of status report
Доп. информация: Реквием Ропарца (1938) исполненный в 1943 году в оккупированном нацистами Париже под управлением Шарля Мюнша прозвучал как символический надгробный монумент в память французов, погибших во время войны и оккупации. Как и его великий предшественник Форе, вместо драматической картины Страшного суда и Апокалипсиса, Ропарц предлагает спокойное и утешительное видение рая. Все здесь предназначено для созерцания, медитации.
[teatrix.ru].t10868.torrent 
Торрент: Зарегистрирован [ 2015-11-27 08:35 ] · 5141C6FFCFD5C1287B81148809459B99544BF321

Скачать .torrent

Скачать

18 KB

Статус: проверено
Скачан: 0 раз
Размер: 214 MB
terms.php



Быстрый ответ

Имя:

      
Для отправки сообщений необходимо включить JavaScript
Показать сообщения:    

Текущее время: 05-Дек 23:39

Часовой пояс: UTC + 3


Вы можете начинать темы
Вы можете отвечать на сообщения
Вы не можете редактировать свои сообщения
Вы не можете удалять свои сообщения
Вы не можете голосовать в опросах
Вы не можете прикреплять файлы к сообщениям
Вы можете скачивать файлы