(Opera) Ruggero Leoncavallo - Pagliacci / Руджеро Леонкавалло - Паяцы (Fausto Cleva; Lucine Amara, Richard Tucker, Giuseppe Valdengo), 1951 - Studio recording / FLAC (tracks+.cue), lossless


 

[Цитировать]

Ruggero Leoncavallo - Pagliacci / Руджеро Леонкавалло - Паяцы (Fausto Cleva; Lucine Amara, Richard Tucker, Giuseppe Valdengo)
Жанр: Opera
Страна-производитель диска: CША
Год издания диска: 1998
Издатель (лейбл): Theorema
Дата записи: 1951
Аудиокодек: FLAC
Тип рипа: tracks+.cue
Битрейт аудио: lossless
Продолжительность: 71:29
Источник: релизер EL HUMILDE CAMPESINO (afinatusoidos)
Исполнители:
Nedda - Lucine Amara,
Canio - Richard Tucker,
Tonio - Giuseppe Valdengo,
Beppe - Thomas Hayward,
Silvio - Clifford Harvuot.
Conductor - Fausto Cleva,
Orchestra and Chorus of Metropolitan Opera Association.
Recorded at Columbia Studios, June 4, 5, 1951.

Лог создания рипа

Exact Audio Copy V1.0 beta 3 from 29. August 2011
EAC extraction logfile from 25. November 2015, 18:14
Artista desconocido / Título desconocido
Used drive : HL-DT-STDVDRAM GH24NSC0 Adapter: 3 ID: 0
Read mode : SecureUtilize accurate stream : YesDefeat audio cache : YesMake use of C2 pointers : No
Read offset correction : 6Overread into Lead-In and Lead-Out : NoFill up missing offset samples with silence : YesDelete leading and trailing silent blocks : NoNull samples used in CRC calculations : YesUsed interface : Native Win32 interface for Win NT & 2000Gap handling : Appended to previous track
Used output format : User Defined EncoderSelected bitrate : 768 kBit/sQuality : HighAdd ID3 tag : NoCommand line compressor : C:\Program Files (x86)\Exact Audio Copy\FLAC\FLAC.EXEAdditional command line options : -8 -V -T "ARTIST=%artist%" -T "TITLE=%title%" -T "ALBUM=%albumtitle%" -T "DATE=%year%" -T "TRACKNUMBER=%tracknr%" -T "GENRE=%genre%" -T "PERFORMER=%albuminterpret%" -T "COMPOSER=%composer%" %haslyrics%--tag-from-file=LYRICS="%lyricsfile%"%haslyrics% -T "ALBUMARTIST=%albumartist%" -T "DISCNUMBER=%cdnumber%" -T "TOTALDISCS=%totalcds%" -T "TOTALTRACKS=%numtracks%" -T "COMMENT=%comment%" %source% -o %dest%
TOC of the extracted CD
Track | Start | Length | Start sector | End sector --------------------------------------------------------- 1 | 0:00.33 | 2:37.32 | 33 | 11839 2 | 2:37.65 | 5:04.65 | 11840 | 34704 3 | 7:42.55 | 2:16.53 | 34705 | 44957 4 | 9:59.33 | 2:46.27 | 44958 | 57434 5 | 12:45.60 | 4:11.48 | 57435 | 76307 6 | 16:57.33 | 2:49.00 | 76308 | 88982 7 | 19:46.33 | 2:22.50 | 88983 | 99682 8 | 22:09.08 | 2:06.25 | 99683 | 109157 9 | 24:15.33 | 4:47.37 | 109158 | 130719 10 | 29:02.70 | 1:57.38 | 130720 | 139532 11 | 31:00.33 | 2:13.25 | 139533 | 149532 12 | 33:13.58 | 5:14.25 | 149533 | 173107 13 | 38:28.08 | 1:52.50 | 173108 | 181557 14 | 40:20.58 | 2:55.00 | 181558 | 194682 15 | 43:15.58 | 3:58.00 | 194683 | 212532 16 | 47:13.58 | 3:29.50 | 212533 | 228257 17 | 50:43.33 | 3:01.00 | 228258 | 241832 18 | 53:44.33 | 1:28.00 | 241833 | 248432 19 | 55:12.33 | 2:13.00 | 248433 | 258407 20 | 57:25.33 | 3:35.37 | 258408 | 274569 21 | 61:00.70 | 1:44.38 | 274570 | 282407 22 | 62:45.33 | 2:34.00 | 282408 | 293957 23 | 65:19.33 | 3:10.00 | 293958 | 308207 24 | 68:29.33 | 2:47.00 | 308208 | 320732
Track 1
Filename f:\Users\Guillermo\Desktop\EAC convertidos\01 Pista01.wav
Pre-gap length 0:00:02.44
Peak level 99.3 % Extraction speed 1.2 X Track quality 99.8 % Test CRC 52FD8E18 Copy CRC 52FD8E18 Copy OK
Track 2
Filename f:\Users\Guillermo\Desktop\EAC convertidos\02 Pista02.wav
Peak level 65.6 % Extraction speed 1.9 X Track quality 100.0 % Test CRC 0F0A6D33 Copy CRC 0F0A6D33 Copy OK
Track 3
Filename f:\Users\Guillermo\Desktop\EAC convertidos\03 Pista03.wav
Peak level 69.4 % Extraction speed 1.3 X Track quality 99.8 % Test CRC 19D58785 Copy CRC 19D58785 Copy OK
Track 4
Filename f:\Users\Guillermo\Desktop\EAC convertidos\04 Pista04.wav
Peak level 79.2 % Extraction speed 1.8 X Track quality 100.0 % Test CRC 669D9B83 Copy CRC 669D9B83 Copy OK
Track 5
Filename f:\Users\Guillermo\Desktop\EAC convertidos\05 Pista05.wav
Peak level 90.0 % Extraction speed 2.2 X Track quality 100.0 % Test CRC CB5AC1DF Copy CRC CB5AC1DF Copy OK
Track 6
Filename f:\Users\Guillermo\Desktop\EAC convertidos\06 Pista06.wav
Peak level 86.9 % Extraction speed 2.1 X Track quality 100.0 % Test CRC 7367DC84 Copy CRC 7367DC84 Copy OK
Track 7
Filename f:\Users\Guillermo\Desktop\EAC convertidos\07 Pista07.wav
Peak level 70.2 % Extraction speed 2.1 X Track quality 100.0 % Test CRC 113B6991 Copy CRC 113B6991 Copy OK
Track 8
Filename f:\Users\Guillermo\Desktop\EAC convertidos\08 Pista08.wav
Peak level 69.0 % Extraction speed 2.1 X Track quality 100.0 % Test CRC 18203C4E Copy CRC 18203C4E Copy OK
Track 9
Filename f:\Users\Guillermo\Desktop\EAC convertidos\09 Pista09.wav
Peak level 99.6 % Extraction speed 2.6 X Track quality 100.0 % Test CRC B55B74CE Copy CRC B55B74CE Copy OK
Track 10
Filename f:\Users\Guillermo\Desktop\EAC convertidos\10 Pista10.wav
Peak level 75.8 % Extraction speed 2.2 X Track quality 100.0 % Test CRC CC1B9A3E Copy CRC CC1B9A3E Copy OK
Track 11
Filename f:\Users\Guillermo\Desktop\EAC convertidos\11 Pista11.wav
Peak level 55.3 % Extraction speed 2.3 X Track quality 100.0 % Test CRC F6C56643 Copy CRC F6C56643 Copy OK
Track 12
Filename f:\Users\Guillermo\Desktop\EAC convertidos\12 Pista12.wav
Peak level 59.5 % Extraction speed 2.9 X Track quality 100.0 % Test CRC 7F7BE5E4 Copy CRC 7F7BE5E4 Copy OK
Track 13
Filename f:\Users\Guillermo\Desktop\EAC convertidos\13 Pista13.wav
Peak level 76.7 % Extraction speed 2.3 X Track quality 100.0 % Test CRC 9079B70E Copy CRC 9079B70E Copy OK
Track 14
Filename f:\Users\Guillermo\Desktop\EAC convertidos\14 Pista14.wav
Peak level 57.0 % Extraction speed 2.7 X Track quality 100.0 % Test CRC 46ACC788 Copy CRC 46ACC788 Copy OK
Track 15
Filename f:\Users\Guillermo\Desktop\EAC convertidos\15 Pista15.wav
Peak level 56.8 % Extraction speed 3.0 X Track quality 100.0 % Test CRC 9C5E551D Copy CRC 9C5E551D Copy OK
Track 16
Filename f:\Users\Guillermo\Desktop\EAC convertidos\16 Pista16.wav
Peak level 48.7 % Extraction speed 2.5 X Track quality 99.8 % Test CRC 653A7FBE Copy CRC 653A7FBE Copy OK
Track 17
Filename f:\Users\Guillermo\Desktop\EAC convertidos\17 Pista17.wav
Peak level 44.7 % Extraction speed 2.4 X Track quality 99.8 % Test CRC 063B68AB Copy CRC 063B68AB Copy OK
Track 18
Filename f:\Users\Guillermo\Desktop\EAC convertidos\18 Pista18.wav
Peak level 22.2 % Extraction speed 2.4 X Track quality 100.0 % Test CRC 9581CF78 Copy CRC 9581CF78 Copy OK
Track 19
Filename f:\Users\Guillermo\Desktop\EAC convertidos\19 Pista19.wav
Peak level 33.8 % Extraction speed 2.8 X Track quality 100.0 % Test CRC 0E4CBEBA Copy CRC 0E4CBEBA Copy OK
Track 20
Filename f:\Users\Guillermo\Desktop\EAC convertidos\20 Pista20.wav
Peak level 38.2 % Extraction speed 3.2 X Track quality 100.0 % Test CRC 80E6F4CC Copy CRC 80E6F4CC Copy OK
Track 21
Filename f:\Users\Guillermo\Desktop\EAC convertidos\21 Pista21.wav
Peak level 57.7 % Extraction speed 2.0 X Track quality 99.7 % Test CRC CDDA16C8 Copy CRC CDDA16C8 Copy OK
Track 22
Filename f:\Users\Guillermo\Desktop\EAC convertidos\22 Pista22.wav
Peak level 41.0 % Extraction speed 3.0 X Track quality 100.0 % Test CRC 04491F65 Copy CRC 04491F65 Copy OK
Track 23
Filename f:\Users\Guillermo\Desktop\EAC convertidos\23 Pista23.wav
Peak level 47.8 % Extraction speed 3.3 X Track quality 100.0 % Test CRC 12C8926A Copy CRC 12C8926A Copy OK
Track 24
Filename f:\Users\Guillermo\Desktop\EAC convertidos\24 Pista24.wav
Peak level 56.8 % Extraction speed 2.6 X Track quality 99.8 % Test CRC A6246710 Copy CRC A6246710 Copy OK
No errors occurred
End of status report
==== Log checksum D7AA8C2505D23A8038EC5FC78027519462A13458F75A649F66718C0A1E662576 ====

Содержание индексной карты (.CUE)

REM DISCID 5710B418REM COMMENT "ExactAudioCopy v1.0b3"FILE "01 Pista01.wav" WAVE TRACK 01 AUDIO PREGAP 00:00:33 INDEX 01 00:00:00FILE "02 Pista02.wav" WAVE TRACK 02 AUDIO INDEX 01 00:00:00FILE "03 Pista03.wav" WAVE TRACK 03 AUDIO INDEX 01 00:00:00FILE "04 Pista04.wav" WAVE TRACK 04 AUDIO INDEX 01 00:00:00FILE "05 Pista05.wav" WAVE TRACK 05 AUDIO INDEX 01 00:00:00FILE "06 Pista06.wav" WAVE TRACK 06 AUDIO INDEX 01 00:00:00FILE "07 Pista07.wav" WAVE TRACK 07 AUDIO INDEX 01 00:00:00FILE "08 Pista08.wav" WAVE TRACK 08 AUDIO INDEX 01 00:00:00FILE "09 Pista09.wav" WAVE TRACK 09 AUDIO INDEX 01 00:00:00FILE "10 Pista10.wav" WAVE TRACK 10 AUDIO INDEX 01 00:00:00FILE "11 Pista11.wav" WAVE TRACK 11 AUDIO INDEX 01 00:00:00FILE "12 Pista12.wav" WAVE TRACK 12 AUDIO INDEX 01 00:00:00FILE "13 Pista13.wav" WAVE TRACK 13 AUDIO INDEX 01 00:00:00FILE "14 Pista14.wav" WAVE TRACK 14 AUDIO INDEX 01 00:00:00FILE "15 Pista15.wav" WAVE TRACK 15 AUDIO INDEX 01 00:00:00FILE "16 Pista16.wav" WAVE TRACK 16 AUDIO INDEX 01 00:00:00FILE "17 Pista17.wav" WAVE TRACK 17 AUDIO INDEX 01 00:00:00FILE "18 Pista18.wav" WAVE TRACK 18 AUDIO INDEX 01 00:00:00FILE "19 Pista19.wav" WAVE TRACK 19 AUDIO INDEX 01 00:00:00FILE "20 Pista20.wav" WAVE TRACK 20 AUDIO INDEX 01 00:00:00FILE "21 Pista21.wav" WAVE TRACK 21 AUDIO INDEX 01 00:00:00FILE "22 Pista22.wav" WAVE TRACK 22 AUDIO INDEX 01 00:00:00FILE "23 Pista23.wav" WAVE TRACK 23 AUDIO INDEX 01 00:00:00FILE "24 Pista24.wav" WAVE TRACK 24 AUDIO INDEX 01 00:00:00

Треклист

1. Prologo
2. Si può?
3. Son qua!
4. Un grande spettacolo
5. Un tal gioco, credetemi!
6. Andiam!
7. Qual fiamma avea nel guardo!
8. Stridono lassu
9. Sei là?
10. Nedda!
11. Decidi il mio destin
12. Non mi tentar
13. Cammina adagio e li sorprenderai!
14. Derisione
15. Recitar! Mentre preso dal delirio
16. Intermezzo
17. Ohè! Presto!
18. Pagliaccio
19. O Colombina
20. È dessa!
21. Arlecchin! Colombina!
22. Versa il filtro
23.. No! Pagliaccio non son
24. Suvviva



Показать сообщения:    

Текущее время: 07-Дек 13:40

Часовой пояс: UTC + 3


Вы не можете начинать темы
Вы не можете отвечать на сообщения
Вы не можете редактировать свои сообщения
Вы не можете удалять свои сообщения
Вы не можете голосовать в опросах
Вы не можете прикреплять файлы к сообщениям
Вы не можете скачивать файлы