Ева / Eva (Густаф Муландер / Gustaf Molander) [1948, Швеция, Драма, DVDRip] + Sub Rus + Original Swe


Статистика раздачи [Обновить пиров]
Размер:  1.3 GB   |    Зарегистрирован:  1 год   |    Скачан:  0 раз

Полного источника не было: Никогда

 
   
 
 
 

[Цитировать]

Ева / Eva
Страна: Швеция
Жанр: Драма
Год выпуска: 1948
Продолжительность: 01:32:57
Перевод: Отсутствует
Cубтитры: русские
Оригинальная аудиодорожка: шведский
Режиссер: Густаф Муландер / Gustaf Molander
В ролях: Биргер Мальмстен, Ева Стиберг, Ева Дальбек, Стиг Олин и др.
Описание: Эта история о пареньке по имене Бо. В 12 летнем возрасте он стал виновником трагедии и воспоминания об этом не дают ему покоя.
Сценарий к фильму написал Ингмар Бергман по своей же киноповести "Трубач и Господь Бог".
Доп. информация: Кроме русских субтитров (отдельным файлом) есть английские в самом файле с видео. Фильм взят с ILC. Перевод мой.
Сэмпл: https://yadi.sk/i/mPdTWORTkoEdD
Качество видео: DVDRip
Формат видео: MKV
Видео: AVC, 690х554, 4:3, 25 fps,1770-1800 kbps
Аудио: АС-3, 48 KHz, 192 Kbps, 2 channels
Формат субтитров: softsub (SRT)

MediaInfo

D:\Eva (1948) Gustaf Molander.mkv
General
Complete name : D:\Eva (1948) Gustaf Molander.mkv
Format : Matroska
File size : 1.30 GiB
Duration : 1h 32mn
Overall bit rate : 2 002 Kbps
Writing application : HandBrake 0.9.9
Writing library : libmkv 0.6.5
Video #1
ID : 1
Format : AVC
Format/Info : Advanced Video Codec
Format profile : High@L3.0
Format settings, CABAC : Yes
Format settings, ReFrames : 4 frames
Muxing mode : Container profile=Unknown@3.0
Codec ID : V_MPEG4/ISO/AVC
Duration : 1h 32mn
Bit rate : 1 770 Kbps
Nominal bit rate : 1 800 Kbps
Width : 690 pixels
Height : 554 pixels
Display aspect ratio : 4:3
Original display aspect ratio : 4:3
Frame rate : 25.000 fps
Resolution : 24 bits
Colorimetry : 4:2:0
Scan type : Progressive
Bits/(Pixel*Frame) : 0.185
Stream size : 1.15 GiB (88%)
Writing library : x264 core 130 r2273 b3065e6
Encoding settings : cabac=1 / ref=4 / deblock=1:0:0 / analyse=0x3:0x113 / me=hex / subme=7 / psy=1 / psy_rd=1.00:0.00 / mixed_ref=1 / me_range=16 / chroma_me=1 / trellis=1 / 8x8dct=1 / cqm=0 / deadzone=21,11 / fast_pskip=1 / chroma_qp_offset=-2 / threads=12 / lookahead_threads=2 / sliced_threads=0 / nr=0 / decimate=1 / interlaced=0 / bluray_compat=0 / constrained_intra=0 / bframes=3 / b_pyramid=2 / b_adapt=1 / b_bias=0 / direct=1 / weightb=1 / open_gop=0 / weightp=2 / keyint=250 / keyint_min=25 / scenecut=40 / intra_refresh=0 / rc_lookahead=40 / rc=2pass / mbtree=1 / bitrate=1800 / ratetol=1.0 / qcomp=0.60 / qpmin=0 / qpmax=69 / qpstep=4 / cplxblur=20.0 / qblur=0.5 / ip_ratio=1.40 / aq=1:1.00
colour_primaries : BT.470-6 System B, BT.470-6 System G, BT.601-6 625, BT.1358 625, BT.1700 625 PAL, BT.1700 625 SECAM
transfer_characteristics : BT.709-5, BT.1361
matrix_coefficients : BT.601-6 525, BT.1358 525, BT.1700 NTSC, SMPTE 170M
Audio #2
ID : 2
Format : AC-3
Format/Info : Audio Coding 3
Codec ID : A_AC3
Duration : 1h 32mn
Bit rate mode : Constant
Bit rate : 192 Kbps
Channel(s) : 2 channels
Channel positions : L R
Sampling rate : 48.0 KHz
Stream size : 128 MiB (10%)
Language : Swedish
Text #3
ID : 3
Format : VobSub
Codec ID : S_VOBSUB
Codec ID/Info : The same subtitle format used on DVDs
Language : English

Скриншот c названием фильма

Пример субтитров

274
00:24:03,480 --> 00:24:06,358
Дорогой Бо,
я не хочу произносить речей...
275
00:24:06,560 --> 00:24:09,154
Папа произносит речь!
276
00:24:09,360 --> 00:24:12,989
Ну что сказать,
Здорово что вы здесь собрались.
277
00:24:13,200 --> 00:24:16,158
Это не речь!
278
00:24:16,360 --> 00:24:20,353
Наши козлы и наши козы,
и наши четвероногие
279
00:24:20,560 --> 00:24:24,269
в нашем лесу они едят дикий овёс
и кору наших деревьев
280
00:24:24,480 --> 00:24:28,951
Под небесами они разносят кофе,
любовь моя
281
00:24:29,160 --> 00:24:33,358
А с рюмкой уйдут все печали
282
00:24:33,560 --> 00:24:35,516
Ваше здоровье!
283
00:24:37,880 --> 00:24:40,519
- Пока!
- Я пойду с тобой.
284
00:24:40,720 --> 00:24:43,996
- Нет, не ночью же.
- А почему нет?
285
00:24:44,200 --> 00:24:46,760
Нет, другой какой-нибудь ночью.
286
00:24:53,400 --> 00:24:56,198
"Посмотрим достопримечательности"...
287
00:24:57,280 --> 00:25:01,990
Так вот почему он говорил загадками!
288
00:25:02,200 --> 00:25:04,668
- Ты о чём?
- Взгляни!
289
00:25:05,960 --> 00:25:08,633
О, ясно... Ева.
290
00:25:09,400 --> 00:25:12,073
- Она замечательная девушка.
- И порядочная.
291
00:25:12,280 --> 00:25:16,990
Хорошая девушка... "достопримечательности" - это не про нее, не так ли?
292
00:25:57,920 --> 00:26:01,356
Не в первый раз я шел здесь...
293
00:26:02,600 --> 00:26:05,273
...именно по этой дороге-
[teatrix.ru].t10872.torrent 
Торрент: Зарегистрирован [ 2015-11-28 18:40 ] · FE8C06C6F84BC7194F593FA9C3DFE0053E5C53D5

Скачать .torrent

Скачать

14 KB

Статус: проверено
Скачан: 0 раз
Размер: 1.3 GB
terms.php



Быстрый ответ

Имя:

      
Для отправки сообщений необходимо включить JavaScript
Показать сообщения:    

Текущее время: 11-Дек 07:14

Часовой пояс: UTC + 3


Вы можете начинать темы
Вы можете отвечать на сообщения
Вы не можете редактировать свои сообщения
Вы не можете удалять свои сообщения
Вы не можете голосовать в опросах
Вы не можете прикреплять файлы к сообщениям
Вы можете скачивать файлы