ОнОнаЖизнь / ВiнВонаЖиття (Марина Назаренко) [2014 г., Украина, визуально-пластический проект, TVRip] Киевский театр "Paper Wall"


 

[Цитировать]

ОнОнаЖизнь / ВiнВонаЖиття Название театра: Киевский театр "Paper Wall".
Год выпуска: 2014.
Страна: Украина .
Жанр: визуально-пластический проект.
Продолжительность: 00:47:00.
Язык: Русский.
Режиссёры: Марина Назаренко.
Действующие лица и исполнители:
Он - Александр Мартыненко,
Она - Татьяна Казанцева,
Жизнь - Марина Назаренко.
О спектакле:
Визуально-пластический проект «ОнОнаЖизнь», подобно шоу STOMP, Blue Man Group и Pilobolus, стал результатом совместного творчества единомышленников. Актеры Татьяна Казанцева, Александр Мартыненко и режиссер Марина Назаренко, лауреат национальной театральной премии Украины «Пектораль» одновременно являются и исполнителями ролей, и сорежиссерами и авторами сценографии спектакля.
Их художественным соратником в спектакле стала бумага во всех ее проявлениях: картон, ватман, крафт и даже привычные рулоны бумаги для офиса. Благодаря своей пластичной природе она позволяет искать и находить изящные и легко угадываемые метафоры и символы, равноценно существующие на сцене рядом с живыми артистами.
Авторы создали спектакль из абсолютно полярных жанров – клоунады, трагедии, эксцентриады и философской притчи. Это дает им огромное поле для сценических экспериментов со своей эмоциональной природой, градус которой то накаляется до искренних драматических переживаний, то охлаждается юмором.
«Идея создания проекта родилась этим летом, когда мы учились в Летней международной школе СТД, – говорит Марина Назаренко. – Реализовать ее мы смогли благодаря друзьям из Полтавского театра кукол, которые предложили нам создать воркшоп на их площадке. Почти месяц мы экспериментировали с фактурой, приемами и наконец представили «ОнОнаЖизнь» зрителям в Полтаве, а затем в Киеве».
Зритель становится настоящим участником представления – действие происходит у него на глазах и буквально на расстоянии вытянутой руки.

Дополнительная информация:
Выпущено: Киевский театр "Paper Wall", ГТРК "Культура" (Украина).
Награды и номинации:
• Международный фестиваль "Зоряний шлях" (Полтава). Приз за лучшую режиссуру.
Релиз
Рип sharky.

Качество видео:...TVRip
Формат:.................AVI
Видео:..704x528 (1.33:1), 25 fps, DivX Codec 4.x ~2074 kbps avg, 0.22 bit/pixel
Аудио:..48 kHz, MPEG Layer 3, 2 ch, ~128.00 kbps avg

Отчет MediaInfo

Общее
Полное имя : OnOnaZhizn'_Kievskij.teatr.Paper.Wall.2014.DiviX.TVRip.fenixclub.avi
Format : AVI
Format/Info : Audio Video Interleave
File size : 744 MiB
Duration : 46mn 59s
Overall bit rate : 2 213 Kbps
Video
ID : 0
Format : MPEG-4 Visual
Format settings, BVOP : 1
Format settings, QPel : No
Format settings, GMC : No warppoints
Format settings, Matrix : Default (H.263)
Codec ID : DX50
Codec ID/Hint : DivX 5
Duration : 46mn 59s
Bit rate : 2 075 Kbps
Width : 704 pixels
Height : 528 pixels
Display aspect ratio : 4:3
Frame rate : 25.000 fps
Color space : YUV
Chroma subsampling : 4:2:0
Bit depth : 8 bits
Scan type : Progressive
Compression mode : Lossy
Bits/(Pixel*Frame) : 0.223
Stream size : 697 MiB (94%)
Title : Video
Writing library : DivX 3013
Audio
ID : 1
Format : MPEG Audio
Format version : Version 1
Format profile : Layer 3
Codec ID : 55
Codec ID/Hint : MP3
Duration : 46mn 59s
Bit rate mode : Constant
Bit rate : 128 Kbps
Channel(s) : 2 channels
Sampling rate : 48.0 KHz
Compression mode : Lossy
Stream size : 43.0 MiB (6%)
Alignment : Split accross interleaves
Interleave, duration : 40 ms (1.00 video frame)
Interleave, preload duratio : 500 ms
Title : Audio

Скриншоты


Альтернативный хост





Показать сообщения:    

Текущее время: 06-Дек 20:59

Часовой пояс: UTC + 3


Вы не можете начинать темы
Вы не можете отвечать на сообщения
Вы не можете редактировать свои сообщения
Вы не можете удалять свои сообщения
Вы не можете голосовать в опросах
Вы не можете прикреплять файлы к сообщениям
Вы не можете скачивать файлы