Фрёкен Юлия / Miss Julie (Лив Ульман / Liv Ullmann) [2014, Норвегия, Великобритания, Канада, США, Франция, Ирландия, драма, мелодрама, WEB-DLRip] (kon2011) + Sub Rus + Original Eng


Статистика раздачи [Обновить пиров]
Размер:  1.57 GB   |    Зарегистрирован:  1 год   |    Скачан:  0 раз

Полного источника не было: Никогда

Личеров:  9  [  0 KB/s  ]   Подробная статистика пиров
 
   
 
 
 

[Цитировать]

Фрёкен Юлия / Miss Julie
Страна: Норвегия, Великобритания, Канада, США, Франция, Ирландия
Жанр: драма, мелодрама
Год выпуска: 2014
Продолжительность: 02:10:03
Перевод: Субтитры kon2011
Cубтитры: русские
Оригинальная аудиодорожка: английский
Режиссер: Лив Ульман / Liv Ullmann
В ролях: Джессика Честейн, Колин Фаррелл, Саманта Мортон, Нора МакМенэми
Описание: Середина лета 1890 года, ирландское графство Фермана. Главная героиня картины «Фрекен Жюли», благородная леди, дочь англо-ирландского аристократа, влюбляется в камердинера своего отца, и тот соблазняет ее. Их отношения из романтичных перерастают во властную игру, в которой никогда не ясно, кто же берет верх.
Доп. информация: http://www.imdb.com/title/tt2667960/
http://www.kinopoisk.ru/film/734323/
Сэмпл: http://multi-up.com/1076953
Качество видео: WEB-DLRip
Формат видео: MP4
Видео: MPEG4 1600kbps, 2fps 1280x720
Аудио: AAC 44100Hz 2ch 125kbps
Формат субтитров: hardsub (неотключаемые)
Доп. информация о субтитрах: kon2011

MediaInfo

Format : MPEG-4
Format profile : Base Media
Codec ID : isom
File size : 1.57 GiB
Duration : 2h 10mn
Overall bit rate mode : Variable
Overall bit rate : 1 728 Kbps
Encoded date : UTC 2015-06-04 11:32:03
Tagged date : UTC 2015-06-04 11:32:03
Writing application : FormatFactory : www.pcfreetime.com
Video
ID : 1
Format : MPEG-4 Visual
Format profile : Simple@L1
Format settings, BVOP : No
Format settings, QPel : No
Format settings, GMC : No warppoints
Format settings, Matrix : Default (H.263)
Codec ID : 20
Duration : 2h 10mn
Bit rate mode : Variable
Bit rate : 1 600 Kbps
Maximum bit rate : 7 937 Kbps
Width : 1 280 pixels
Height : 720 pixels
Display aspect ratio : 16:9
Frame rate mode : Constant
Frame rate : 25.000 fps
Color space : YUV
Chroma subsampling : 4:2:0
Bit depth : 8 bits
Scan type : Progressive
Compression mode : Lossy
Bits/(Pixel*Frame) : 0.069
Stream size : 1.45 GiB (93%)
Writing library : Lavc53.8.0
Encoded date : UTC 2015-06-04 11:32:03
Tagged date : UTC 2015-06-04 11:33:17
Audio
ID : 2
Format : AAC
Format/Info : Advanced Audio Codec
Format profile : LC
Codec ID : 40
Duration : 2h 10mn
Bit rate mode : Variable
Bit rate : 125 Kbps
Maximum bit rate : 240 Kbps
Channel(s) : 2 channels
Channel positions : Front: L R
Sampling rate : 44.1 KHz
Compression mode : Lossy
Stream size : 116 MiB (7%)
Encoded date : UTC 2015-06-04 11:32:55
Tagged date : UTC 2015-06-04 11:33:17

Скриншот c названием фильма

Скриншоты

[teatrix.ru].t10874.torrent 
Торрент: Зарегистрирован [ 2015-11-29 00:35 ] · 094960647BFCB99B50BF26244460EE27894B9F8E

Скачать .torrent

Скачать

16 KB

Статус: проверено
Скачан: 0 раз
Размер: 1.57 GB
terms.php

[Цитировать]

ПОЧЕМУ не скачивается кино? загрузилось 89 процентов и несколько дней уже не движется

[Цитировать]

rosdo, это означает, что в сети пока нет пользователя у которого есть этот фильм целиком.
Не уходите с раздачи, возможно сид появиться в ближайшее время.

[Цитировать]

Кто нибудь вернитесь! Дайте докачать 168МБ! Зато я раздал больше 5 гигов этого фильма. Где справедливость?

[Цитировать]

блин, это гониво. опять 168 мб осталось. Похоже, что-то здесь не так. Ни одного сакчивания в статистике. Развоод!


Быстрый ответ

Имя:

      
Для отправки сообщений необходимо включить JavaScript
Показать сообщения:    

Текущее время: 09-Дек 20:28

Часовой пояс: UTC + 3


Вы можете начинать темы
Вы можете отвечать на сообщения
Вы не можете редактировать свои сообщения
Вы не можете удалять свои сообщения
Вы не можете голосовать в опросах
Вы не можете прикреплять файлы к сообщениям
Вы можете скачивать файлы