Годы странствий (Игорь Горбачёв, Борис Лёскин) [1968 г., Драма, телеспектакль, WEB-DLRip]


 

[Цитировать]

Годы странствий (2 части) Год выпуска: 1968.
Жанр: Драма в двух частях, восьми картинах, телеспектакль.
Продолжительность: 01:10:47 + 01:12:43 (02:23:30).
Режиссеры: Игорь Горбачёв, Борис Лёскин.
Действующие лица и исполнители:
Ведерников Александр Николаевич - Аркадий Волгин,
Павлик Тучков - Евгений Чудаков,
Лаврухин Михаил Иванович - Валерий Караваев,
Архипов - народный артист РСФСР Игорь Горбачёв,
Люся Ведерникова - Тамара Коновалова,
Галина - Людмила Горбачёва,
Ольга - Елена Вановская,
Нина - Нонна Самарина,
Тётя Тася - народная артистка РСФСР Лидия Штыкан,
Олег Доронин - Геннадий Судаков,
Кузя, его жена - заслуженная артистка РСФСР Вера Карпова,
Прохожий - Вениамин Клейнер,
Бочкин, водитель - Юрий Куранин,
Девушка из цеха - Галина Яковлева,
Солдатенков - Борис Лёскин,
Артиллерист - Рудольф Кульд,
Зойка Толоконцева, санитарка - Ирина Лепешенкова,
Солдаты у переправы - В. Лебедев, Владимир Калиш, Павел Гусаков.
О спектакле:
Телеспектакль по пьесе Алексея Арбузова.
Пьеса Арбузова "Годы странствий" написана в 1954 году, ее тут же поставили во многих столичных и провинциальных театрах. В тогдашней версии московского Ленкома главные роли играли такие мастера, как Елена Фадеева, а в Ленинградском театре имени Пушкина – Василий Меркурьев; арбузовских героев вообще часто играли великие актеры различных эпох.
Странствуют герои Арбузова не по своей воле: их всех разбрасывает, разводит и вновь сводит война.
Действие пьесы разворачивается в предвоенные и военные годы, герои спектакля – молодые люди, будущие медики, потом ставшие врачами, принявшие на себя огромную нагрузку врачей на войне. Не менее трудно и всем остальным героям пьесы, даже тем, кто не имел отношения к медицине. Лихое военное время стало проверкой для всех и для всего.

Дополнительная информация:
Страна: СССР .
Выпущено: Ленинградское телевидение.
Автор: Алексей Арбузов.
Оператор: Иосиф Волынский.
Композитор: Альберт Пресленев.
Художник: Геннадий Дрейман.

Оглавление

Часть первая.
Картина первая. Юность. (Август 1937 года).
Картина вторая. Зависть. (Май 1939 года).
Картина третья Тяжёлые дни. (Декабрь 1941 года).
Картина четвёртая. Отъезд. (Май 1942 года).
Часть вторая.
Картина пятая. Люся. (Февраль 1943 года).
Картина шестая. Дороги. (Апрель 1945 года).
Картина седьмая. Возвращение. Май 1945 года.
Картина восьмая. Кому оставлена жизнь.
Релиз
Рип lesik689.

Качество видео:...WEB-DLRip
Формат:.................AVI
Видео:..640x480 (1.33:1), 25 fps, XviD build 73 ~1701 kbps avg, 0.22 bit/pixel
Аудио:..44.100 kHz, MPEG Layer 3, 2 ch, ~128.00 kbps avg

Отчет Media Info

Часть 1:
General
Complete name : Gody.stranstvij.(2.chasti).1968.XviD.WEB-DLRip.fenixclub\Gody.stranstvij.1968.Chast'_1.avi
Format : AVI
Format/Info : Audio Video Interleave
File size : 931 MiB
Duration : 1h 10mn
Overall bit rate : 1 838 Kbps
Video
ID : 0
Format : MPEG-4 Visual
Format profile : Advanced Simple@L5
Format settings, BVOP : 2
Format settings, QPel : No
Format settings, GMC : No warppoints
Format settings, Matrix : Default (MPEG)
Codec ID : XVID
Codec ID/Hint : XviD
Duration : 1h 10mn
Bit rate : 1 701 Kbps
Width : 640 pixels
Height : 480 pixels
Display aspect ratio : 4:3
Frame rate : 25.000 fps
Color space : YUV
Chroma subsampling : 4:2:0
Bit depth : 8 bits
Scan type : Progressive
Compression mode : Lossy
Bits/(Pixel*Frame) : 0.221
Stream size : 861 MiB (93%)
Writing library : XviD 73
Audio
ID : 1
Format : MPEG Audio
Format version : Version 1
Format profile : Layer 3
Mode : Joint stereo
Mode extension : MS Stereo
Codec ID : 55
Codec ID/Hint : MP3
Duration : 1h 10mn
Bit rate mode : Constant
Bit rate : 128 Kbps
Channel(s) : 2 channels
Sampling rate : 44.1 KHz
Compression mode : Lossy
Stream size : 64.6 MiB (7%)
Alignment : Split accross interleaves
Interleave, duration : 40 ms (1.00 video frame)
Interleave, preload duratio : 501 ms
Часть 2:
General
Complete name : Gody.stranstvij.(2.chasti).1968.XviD.WEB-DLRip.fenixclub\Gody.stranstvij.1968.Chast'_2.avi
Format : AVI
Format/Info : Audio Video Interleave
File size : 956 MiB
Duration : 1h 12mn
Overall bit rate : 1 839 Kbps
Video
ID : 0
Format : MPEG-4 Visual
Format profile : Advanced Simple@L5
Format settings, BVOP : 2
Format settings, QPel : No
Format settings, GMC : No warppoints
Format settings, Matrix : Default (MPEG)
Codec ID : XVID
Codec ID/Hint : XviD
Duration : 1h 12mn
Bit rate : 1 701 Kbps
Width : 640 pixels
Height : 480 pixels
Display aspect ratio : 4:3
Frame rate : 25.000 fps
Color space : YUV
Chroma subsampling : 4:2:0
Bit depth : 8 bits
Scan type : Progressive
Compression mode : Lossy
Bits/(Pixel*Frame) : 0.221
Stream size : 885 MiB (93%)
Writing library : XviD 73
Audio
ID : 1
Format : MPEG Audio
Format version : Version 1
Format profile : Layer 3
Mode : Joint stereo
Mode extension : MS Stereo
Codec ID : 55
Codec ID/Hint : MP3
Duration : 1h 12mn
Bit rate mode : Constant
Bit rate : 128 Kbps
Channel(s) : 2 channels
Sampling rate : 44.1 KHz
Compression mode : Lossy
Stream size : 66.4 MiB (7%)
Alignment : Split accross interleaves
Interleave, duration : 40 ms (1.00 video frame)
Interleave, preload duratio : 501 ms

Скриншоты


Альтернативный хост





Показать сообщения:    

Текущее время: 10-Дек 00:14

Часовой пояс: UTC + 3


Вы не можете начинать темы
Вы не можете отвечать на сообщения
Вы не можете редактировать свои сообщения
Вы не можете удалять свои сообщения
Вы не можете голосовать в опросах
Вы не можете прикреплять файлы к сообщениям
Вы не можете скачивать файлы