Паук / Spider (Дэвид Кроненберг / David Cronenberg) [2002, Франция, Канада, Великобритания, драма, психологический триллер, VHSRip] [FullScreen] MVO (Пирамида)


Статистика раздачи [Обновить пиров]
Размер:  1.42 GB   |    Зарегистрирован:  1 год   |    Скачан:  0 раз

Полного источника не было: Никогда

 
   
 
 
 

[Цитировать]

Паук / Spider
«Хуже, чем потерять рассудок, может быть только одно - снова обрести его»
[FullScreen]
Страна: Франция, Канада, Великобритания
Жанр: драма, психологический триллер
Год выпуска: 2002
Продолжительность: 01:34:24
Перевод: Профессиональный (многоголосый закадровый) Пирамида
Cубтитры: нет
Режиссер: Дэвид Кроненберг / David Cronenberg
В ролях: Рэйф Файнс, Миранда Ричардсон, Гэбриэл Бирн, Брэдли Холл, Линн Редгрэйв, Джон Невилл, Гэри Райнеке, Филип Крэйг
Описание: Проведя 20 лет в доме для умалишенных, странный и нелюдимый Деннис Клег возвращается в мрачные закоулки Ист-Энда, где прошло его детство. Словно паук, он рыщет по паутине воспоминаний, опутавшей его больной разум, заново переживая боль и страх, ставшие его единственными друзьями в родном доме, больше похожем на ад. Отважитесь ли вы приоткрыть заржавевшие двери его сознания, чтобы во мраке узреть картины жизни одинокого Паука?
Блистательный психологический триллер по роману Патрика МакГрата ("Гротеск") стал новой работой гениального Дэвида Кроненберга ("Экзистенция", "Автокатастрофа" - Специальный приз жюри Каннского фестиваля; "Обед нагишом", "Муха", "Связанные намертво"). Этот мрачный и завораживающий шедевр с незабываемой музыкой Хауарда Шора ("Властелин колец: Братство Кольца" - "Оскар-2002"; "Молчание ягнят") был признан лучшим канадским фильмом на Торонтском кинофестивале и был удостоен номинации на "Золотую пальмовую ветвь" на фестивале в Каннах-2002. В главных ролях: Рэйф Файнс ("Список Шиндлера" - номинация на "Оскар"; "Английский пациент" - номинация на "Оскар"; "Красный дракон"), двукратная номинантка на "Оскар" Миранда Ричардсон ("Часы", "Сонная лощина"), Гэбриел Бирн ("Подозрительные лица", "Конец света"), двукратная номинантка на "Оскар" Линн Редгрэйв ("Блеск"), Джон Невилл ("Вкус солнечного света").
Доп. информация: Оцифровка лицензионной VHS (личный архив) и получение VHSRip alenavova
Сэмпл: https://yadi.sk/i/_JzO8NR_kpDgK
Качество видео: VHSRip
Формат видео: AVI
Видео: 704x528 (1.33:1), 25 fps, XviD build 73 ~1955 kbps avg, 0.21 bit/pixel
Аудио: 48 kHz, AC3 Dolby Digital, 2/0 (L,R) ch, ~192 kbps

MediaInfo

Паук - Spider (by alenavova).avi
Format : AVI
Format/Info : Audio Video Interleave
File size : 1.42 GiB
Duration : 1h 34mn
Overall bit rate : 2 157 Kbps
Movie name : Паук - Spider (by alenavova)
Director : by alenavova
Writing application : VirtualDubMod 1.5.10.3 | www.virtualdub-fr.org || (build 2550/release)
Copyright : Edich2
Video
ID : 0
Format : MPEG-4 Visual
Format profile : Advanced Simple@L5
Format settings, BVOP : 1
Format settings, QPel : No
Format settings, GMC : No warppoints
Format settings, Matrix : Default (H.263)
Codec ID : XVID
Codec ID/Hint : XviD
Duration : 1h 34mn
Bit rate : 1 955 Kbps
Width : 704 pixels
Height : 528 pixels
Display aspect ratio : 4:3
Frame rate : 25.000 fps
Color space : YUV
Chroma subsampling : 4:2:0
Bit depth : 8 bits
Scan type : Progressive
Compression mode : Lossy
Bits/(Pixel*Frame) : 0.210
Stream size : 1.29 GiB (91%)
Writing library : XviD 73
Audio
ID : 1
Format : AC-3
Format/Info : Audio Coding 3
Mode extension : CM (complete main)
Format settings, Endianness : Big
Codec ID : 2000
Duration : 1h 34mn
Bit rate mode : Constant
Bit rate : 192 Kbps
Channel(s) : 2 channels
Channel positions : Front: L R
Sampling rate : 48.0 KHz
Bit depth : 16 bits
Compression mode : Lossy
Stream size : 130 MiB (9%)
Alignment : Split accross interleaves
Interleave, duration : 40 ms (1.00 video frame)
Interleave, preload duration : 500 ms

Скриншоты


[teatrix.ru].t10879.torrent 
Торрент: Зарегистрирован [ 2015-11-30 09:40 ] · 579BE91749E727A9F1B81D535E8CAF2074275CD4

Скачать .torrent

Скачать

15 KB

Статус: проверено
Скачан: 0 раз
Размер: 1.42 GB
terms.php



Быстрый ответ

Имя:

      
Для отправки сообщений необходимо включить JavaScript
Показать сообщения:    

Текущее время: 08-Дек 10:59

Часовой пояс: UTC + 3


Вы можете начинать темы
Вы можете отвечать на сообщения
Вы не можете редактировать свои сообщения
Вы не можете удалять свои сообщения
Вы не можете голосовать в опросах
Вы не можете прикреплять файлы к сообщениям
Вы можете скачивать файлы