Борода Ивана / A la barbe d'Ivan / À la barbe d'Ivan (Пьер Леон / Pierre Léon) [2010, Франция, экспериментальный, DVDRip] + Sub Rus + Original Fre


Статистика раздачи [Обновить пиров]
Размер:  178 MB   |    Зарегистрирован:  1 год   |    Скачан:  0 раз

Полного источника не было: Никогда

 
   
 
 
 

[Цитировать]

Борода Ивана / A la barbe d'Ivan / À la barbe d'Ivan
Страна: Франция
Жанр: экспериментальный
Год выпуска: 2010
Продолжительность: 00:11:01
Перевод: Субтитры
Cубтитры: русские
Оригинальная аудиодорожка: французский
Режиссер: Пьер Леон / Pierre Léon
В ролях: Пьер Леон (голос)/ Pierre Léon (voix)
Описание: В фильме «Борода Ивана» Пьер Леон занимается удивительным монтажом – совмещает кадры эйзенштейновского «Ивана Грозного», пырьевского «Сказания о земле Сибирской» с выдержками из знаменитой беседы Сталина с Эйзенштейном о судьбе второй серии «Грозного» (Беседа с С.М. Эйзенштейном и Н.К. Черкасовым по поводу фильма «Иван Грозный» 26 февраля 1947 года // Сталин И.В. Cочинения. – Т. 18. – Тверь: Информационно-издательский центр «Союз», 2006. С. 433–440).
Доп. информация: Перевод – Максим Селезнев, подготовка субтитров – Алексей Тютькин.
Перевод фильма был выполнен специально к ретроспективе Пьера Леона.

Пьер Леон. Материалы

О Пьере Леоне http://www.newcinemaschool.com/per-leon-2/
Ретроспектива Пьера Леона http://seance.ru/new-stage-cinema/
Пьер Леон. Неравнодушная история. «Перед судом истории» Фридриха Эрмлера и «Следующее воскресенье» Олега Морозова http://seance.ru/n/49-50/seance-guide/a-la-francais...shnaya-istoriya/
Пьер Леон. В спирали настоящего. «Приближение» Александра Рехвиашвили http://seance.ru/n/49-50/seance-guide/a-la-francais...i-nastoyashhego/
Синефилы: история Пьера и Владимира Леона - Радио Свобода www.svoboda.org/content/transcript/1819677.html
Камерная экранизация романа Достоевского http://kinote.info/articles/9696-kamernaya-ekraniza...ana-dostoevskogo
Инна Кушнарёва. L'Idiot/Pierre Leon http://fosca-jours-de-lenteur.blogspot.com/2008/10/...pierre-leon.html
Пьер Леон: Сегодняшнее авторское кино построено на развалинах старого стиля http://cineticle.com/slova/128-pier-leon-interview.html
Пьер Леон: «Главный недостаток La Fémis в том, что здесь учат быть авторами» http://seance.ru/blog/femis/
Режиссёр категории Бьетт. С Пьером Леоном беседуют Лариса Смирнова, Дмитрий Мартов http://seance.ru/blog/leon-biette/
Пьер Леон о Жан-Клоде Гиге: Единственный лирик французского кино. С Пьером Леоном беседуют Станислава Битюцкий и Алексей Тютькин http://cineticle.com/inerviews/949-pierre-leon-about-guiguet.html
Борис Нелепо. Роттердам-2012: десять лучших фильмов о завтрашнем дне http://os.colta.ru/cinema/events/details/34117/page3/?attempt=1
Пьер Леон: «Теории не должны закрывать нам глаза…» http://kinoart.ru/blogs/per-leon-teorii-ne-dolzhny-zakryvat-nam-glaza
Пьер Леон: «Язык медиа, как и язык Софокла, – это язык власти» http://archives.colta.ru/docs/18690
Диалоги, которых не хватало. С Жанной Балибар и Пьером Леоном беседуют Дмитрий Мартов, Борис Нелепо http://seance.ru/blog/balibar-leon/
Премьера фильма «Например, Электра» Пьера Леона и Жанны Балибар http://kinote.info/articles/9481-premera-filma-napr...i-zhanny-balibar
Премьера фильма «Например, Электра» Пьера Леона и Жанны Балибар http://cineticle.com/news/844-premiere-piere-leon.html
Алексей Тютькин. Без сомнений, Электра http://cineticle.com/texts/847-par-exemple-electre.html
Московский парижанин Пьер Леон http://www.salonn.ru/article/637-moskovskiy-parizhanin-per-leon/
Французский кинорежиссёр Пьер Леон дал эксклюзивное интервью в рамках «Лiстапада-2014» http://ont.by/news/our_news/francyzskij-kinorezhiss...vyu-v-ramkah-lis
Алексей Васильев. «Два Реми, два»: Улыбка идиота http://seance.ru/blog/reviews/deux_remi_deux/
Инна Кушнарева. Les Dostoïevskis. Ретроспектива Пьера Леона на Новой сцене Александринки http://www.colta.ru/articles/cinema/9347
Пьер Леон/Павел Арсеньев. Делать видимым время http://www.trans-lit.info/materialy/15-16-vypuski/p...t-vidimym-vremya
Сэмпл: http://multi-up.com/1077199
Качество видео: DVDRip
Формат видео: MP4
Видео: AVC at 2152 kbps, 0.195 bit/pixel, 768x576 (1.33:1) at 25 fps
Аудио: AAC at 105 kbps, 2 ch (Front: L R), 48 kHz
Формат субтитров: softsub (SRT)

MediaInfo

Формат : MPEG-4
Идентификатор кодека : M4V
Размер файла : 178 Мбайт
Продолжительность : 11 м.
Общий поток : 2262 Кбит/сек
Название фильма : nelepo
Название фильма/Ещё... : This video is about nelepo
Исполнитель : X43A
Дата кодирования : UTC 2015-11-26 11:37:18
Дата пометки : UTC 2015-11-26 11:41:16
desc : This video is about nelepo
keyw : nelepo
Видео
Идентификатор : 2
Формат : AVC
Формат/Информация : Advanced Video Codec
Профиль формата : High@L3.1
Параметр CABAC формата : Да
Параметр ReFrames формата : 2 кадры
Параметры GOP формата : M=2, N=30
Идентификатор кодека : avc1
Идентификатор кодека/Информация : Advanced Video Coding
Продолжительность : 11 м.
Вид битрейта : Переменный
Битрейт : 2152 Кбит/сек
Ширина : 768 пикс.
Высота : 576 пикс.
Соотношение сторон : 4:3
Режим частоты кадров : Постоянный
Частота кадров : 25,000 кадр/сек
Цветовое пространство : YUV
Подвыборка цветности : 4:2:0
Битовая глубина : 8 бит
Тип развёртки : Прогрессивная
Бит/(Пиксели*Кадры) : 0.195
Размер потока : 170 Мбайт (95%)
Заголовок : Core Media Video
Дата кодирования : UTC 2015-11-26 11:37:18
Дата пометки : UTC 2015-11-26 11:41:16
Основные цвета : BT.601-6 525, BT.1358 525, BT.1700 NTSC, SMPTE 170M
Характеристики трансфера : BT.709-5, BT.1361
Коэффициенты матрицы : BT.601-6 525, BT.1358 525, BT.1700 NTSC, SMPTE 170M
Аудио
Идентификатор : 1
Формат : AAC
Формат/Информация : Advanced Audio Codec
Профиль формата : LC
Идентификатор кодека : 40
Продолжительность : 11 м.
Вид битрейта : Постоянный
Битрейт : 105 Кбит/сек
Номинальный битрейт : 128 Кбит/сек
Канал(ы) : 2 канала(ов)
Расположение каналов : Front: L R
Частота : 48,0 КГц
Метод сжатия : С потерями
Размер потока : 8,30 Мбайт (5%)
Заголовок : Core Media Audio
Язык : Russian
Дата кодирования : UTC 2015-11-26 11:37:18
Дата пометки : UTC 2015-11-26 11:41:16

Фрагмент субтитров

1
00:00:00,752 --> 00:00:09,452
Три миниатюры Пьера Леона
2
00:00:13,368 --> 00:00:21,407
Борода Ивана
3
00:00:22,263 --> 00:00:25,763
«Сказание о земле Сибирской»,
цветная комедия Ивана Пырьева,
4
00:00:26,063 --> 00:00:28,263
с его женой Мариной Ладыниной
в главной роли
5
00:00:28,539 --> 00:00:31,688
триумфально вышла
в начале 1948 года.
6
00:00:33,063 --> 00:00:35,063
В феврале 1947 года
7
00:00:35,315 --> 00:00:36,815
фильм снимался.
8
00:00:38,563 --> 00:00:39,563
В это же время,
9
00:00:39,889 --> 00:00:42,758
а точнее 28 февраля 1947 года,
10
00:00:43,563 --> 00:00:46,563
Сергей Эйзенштейн
и актер Николай Черкасов
11
00:00:47,063 --> 00:00:51,563
посетили Кремль, чтобы обсудить судьбу
второй части «Ивана Грозного».
12
00:00:53,399 --> 00:00:57,024
Вот некоторые выдержки из беседы,
что последовала:
13
00:01:11,366 --> 00:01:13,361
«Мы были вызваны к 11-ти часам.
14
00:01:14,272 --> 00:01:16,272
В 10 часов 50 минут пришли в приемную.
15
00:01:16,563 --> 00:01:21,063
Ровно в 11 часов вышел Поскребышев
проводить нас в кабинет.
16
00:01:22,563 --> 00:01:27,323
В глубине кабинета –
Сталин, Молотов, Жданов.
17
00:01:29,828 --> 00:01:30,828
Входим,
18
00:01:31,181 --> 00:01:32,868
здороваемся,
19
00:01:33,113 --> 00:01:35,614
садимся за стол.
20
00:01:35,939 --> 00:01:36,829
Сталин:
21
00:01:37,774 --> 00:01:39,274
Вы писали письмо.

Скриншот c названием фильма

Скриншоты

[teatrix.ru].t10880.torrent 
Торрент: Зарегистрирован [ 2015-11-30 09:40 ] · 3791BF8D22B8708E48C85AC8B57CCA1770D495FC

Скачать .torrent

Скачать

15 KB

Статус: проверено
Скачан: 0 раз
Размер: 178 MB
terms.php



Быстрый ответ

Имя:

      
Для отправки сообщений необходимо включить JavaScript
Показать сообщения:    

Текущее время: 05-Дек 07:30

Часовой пояс: UTC + 3


Вы можете начинать темы
Вы можете отвечать на сообщения
Вы не можете редактировать свои сообщения
Вы не можете удалять свои сообщения
Вы не можете голосовать в опросах
Вы не можете прикреплять файлы к сообщениям
Вы можете скачивать файлы