(Classical) Ravi Shankar | রবীন্দ্র শঙ্কর চৌধুরী - Symphony (Anoushka Shankar, LPO, David Murphy) - 2012, FLAC (image+.cue) lossless


 

[Цитировать]

Ravi Shankar - Symphony
Жанр: Classical
Страна-производитель диска: Germany
Год издания диска: 2012
Издатель (лейбл): London Philharmonic Orchestra
Номер по каталогу: LPO-0060
Дата записи: 1.VII.2010 live
Аудиокодек: FLAC
Тип рипа: image+.cue
Битрейт аудио: lossless
Продолжительность: 41'49"
Источник: собственный рип
Наличие сканов в содержимом раздачи: да
Ravi Shankar - Symphony No.1:
1. Allegro - Kafi Zila
2. Lento - Ahir Bhairav
3. Scherzo - DoGa Kalyan
4. Finale - Banjara
Исполнители:
Anoushka Shankar, sitar
London Philharmonic Orchestra
David Murphy

Лог создания рипа

Exact Audio Copy V1.0 beta 4 from 7. December 2014
EAC extraction logfile from 29. November 2015, 14:35
Ravi Shankar / Symphony
Used drive : TSSTcorpDVDWBD TS-LB23A Adapter: 1 ID: 0
Read mode : SecureUtilize accurate stream : YesDefeat audio cache : YesMake use of C2 pointers : No
Read offset correction : 6Overread into Lead-In and Lead-Out : NoFill up missing offset samples with silence : YesDelete leading and trailing silent blocks : NoNull samples used in CRC calculations : YesUsed interface : Native Win32 interface for Win NT & 2000
Used output format : User Defined EncoderSelected bitrate : 128 kBit/sQuality : HighAdd ID3 tag : YesCommand line compressor : C:\Program Files (x86)\Exact Audio Copy\Flac\flac.exeAdditional command line options : -T "COMMENT=Ripped by GFox" -V -8 %source%
TOC of the extracted CD
Track | Start | Length | Start sector | End sector --------------------------------------------------------- 1 | 0:00.00 | 9:21.37 | 0 | 42111 2 | 9:21.37 | 7:51.66 | 42112 | 77502 3 | 17:13.28 | 8:48.52 | 77503 | 117154 4 | 26:02.05 | 15:47.13 | 117155 | 188192
Range status and errors
Selected range
Filename D:\Downloads\Ravi Shankar - Symphony.wav
Peak level 100.0 % Extraction speed 1.4 X Range quality 99.9 % Test CRC BEFCA2D9 Copy CRC BEFCA2D9 Copy OK
No errors occurred
AccurateRip summary
Track 1 accurately ripped (confidence 7) [F65B231A] (AR v2)Track 2 accurately ripped (confidence 7) [7CFC7079] (AR v2)Track 3 accurately ripped (confidence 7) [3E35BC98] (AR v2)Track 4 accurately ripped (confidence 7) [6E4B9F86] (AR v2)
All tracks accurately ripped
End of status report
==== Log checksum 1B7687637A6A162F3E40F1E03C7A07CF905984F47D7EFDFDED4D3D615D51AFD1 ====
-Доп. информация: За два года до своей смерти Робиндро Шанкар Чоудхари (Рави Шанкар) совместно с дирижёром Дэвидом Мерфи написал свою первую (и единственную) симфонию для западного оркестра. Пандит Шанкар сочинил музыку в классическом четырёхчастном (быстрая-медленная-быстрая-финал) стиле, а Мёрфи, ранее уже работавший с Шанкаром над схожими проектами, перевёл её в привычную западную систему нотации. Написанная в стиле созданных в соавторстве с Филипом Глассом Пассажей, Симфония для солирующего ситара (эту партию исполняет дочь композитора Анушка Шанкар), хора и оркестра стала своего рода "девятой симфонией" почтенного музыканта и композитора, финальным аккордом на его долгом пути создания моста между западной и восточной музыкальными традициями.-



Показать сообщения:    

Текущее время: 03-Дек 12:40

Часовой пояс: UTC + 3


Вы не можете начинать темы
Вы не можете отвечать на сообщения
Вы не можете редактировать свои сообщения
Вы не можете удалять свои сообщения
Вы не можете голосовать в опросах
Вы не можете прикреплять файлы к сообщениям
Вы не можете скачивать файлы