(Orchestral) Anton Bruckner - Symphonie Nr.9 (Berner Symphonieorchester - Mario Venzago) - 2013, FLAC (image+.cue) lossless


 

[Цитировать]

Anton Bruckner
Symphonie 9
Berner Symphonieorchester
Mario Venzago-
-
- Жанр: Orchestral
Страна-производитель диска: Germany
Год издания диска: 2013
Издатель (лейбл): CPO
Дата записи: 20-25.09.2012
Аудиокодек: FLAC
Тип рипа: image+.cue
Битрейт аудио: lossless
Продолжительность: 51'40''
Источник: собственный рип
Наличие сканов в содержимом раздачи: да
Треклист:
A.Bruckner - Symphonie Nr.9:
[1] I. Feierlich, misterioso
[2] II. Scherzo: Bewegt, lebhaft
[3] III. Adagio: Langsam feierlich
Исполнители:
Berner Symphonieorchester - Mario Venzago

Лог создания рипа

Exact Audio Copy V1.0 beta 4 from 7. December 2014
EAC extraction logfile from 8. August 2015, 16:52
Berner Symphonieorchester - Mario Venzago / Bruckner 9
Used drive : PHILIPS PCRW804 Adapter: 1 ID: 1
Read mode : SecureUtilize accurate stream : YesDefeat audio cache : YesMake use of C2 pointers : No
Read offset correction : -436Overread into Lead-In and Lead-Out : NoFill up missing offset samples with silence : YesDelete leading and trailing silent blocks : NoNull samples used in CRC calculations : YesUsed interface : Native Win32 interface for Win NT & 2000
Used output format : User Defined EncoderSelected bitrate : 1024 kBit/sQuality : HighAdd ID3 tag : NoCommand line compressor : C:\Program Files (x86)\FLAC\flac.exeAdditional command line options : -T "COMMENT=rip by el coronel" -8 -V %source%
TOC of the extracted CD
Track | Start | Length | Start sector | End sector --------------------------------------------------------- 1 | 0:00.00 | 21:33.42 | 0 | 97016 2 | 21:33.42 | 9:19.58 | 97017 | 138999 3 | 30:53.25 | 20:44.59 | 139000 | 232358
Range status and errors
Selected range
Filename F:\Music\Bruckner 0-9 Venzago\Bruckner 9\CD.wav
Peak level 100.0 % Extraction speed 1.9 X Range quality 100.0 % Test CRC 6A8D4F0E Copy CRC 6A8D4F0E Copy OK
No errors occurred
AccurateRip summary
Track 1 accurately ripped (confidence 1) [893FA476] (AR v2)Track 2 accurately ripped (confidence 1) [F828E68D] (AR v2)Track 3 accurately ripped (confidence 1) [D2B4FA77] (AR v2)
All tracks accurately ripped
End of status report
---- CUETools DB Plugin V2.1.4
[CTDB TOCID: _9YcWIEJAgx2XNpI2YB38nBBGGw-] foundSubmit result: _9YcWIEJAgx2XNpI2YB38nBBGGw- has been confirmedTrack | CTDB Status 1 | (1/1) Accurately ripped 2 | (1/1) Accurately ripped 3 | (1/1) Accurately ripped
==== Log checksum D7BC49D1D6EB5467AC5115A11BA4848EAF57FC6D3C5EBA6A42EE1E8DF33F5028 ====

Содержание индексной карты (.CUE)

REM GENRE ClassicalREM DATE 2012REM DISCID 260C1A03REM COMMENT "ExactAudioCopy v1.0b4"CATALOG 0761203778720PERFORMER "Berner Symphonieorchester - Mario Venzago"TITLE "Bruckner 9"FILE "CD.flac" WAVE TRACK 01 AUDIO TITLE "I. Feierlich, misterioso" PERFORMER "Berner Symphonieorchester - Mario Venzago" ISRC DEB201278701 INDEX 01 00:00:00 TRACK 02 AUDIO TITLE "II. Scherzo: Bewegt, lebhaft" PERFORMER "Berner Symphonieorchester - Mario Venzago" ISRC DEB201278701 INDEX 01 21:33:42 TRACK 03 AUDIO TITLE "III. Adagio: Langsam feierlich" PERFORMER "Berner Symphonieorchester - Mario Venzago" ISRC DEB201278702 INDEX 01 30:53:25



Показать сообщения:    

Текущее время: 19-Янв 22:17

Часовой пояс: UTC + 3


Вы не можете начинать темы
Вы не можете отвечать на сообщения
Вы не можете редактировать свои сообщения
Вы не можете удалять свои сообщения
Вы не можете голосовать в опросах
Вы не можете прикреплять файлы к сообщениям
Вы не можете скачивать файлы