(Classical) Jean-Philippe Rameau - Castor & Pollux (1754) / Жан-Филипп Рамо - Кастор и Поллукс - Ainsworth, Sempey, De Negri, Margaine, Devieilhe, Immler; Ensemble Pygmalion, Raphael Pichon - 2015, FLAC (image+.cue) lossless


 

[Цитировать]

Jean-Philippe Rameau - Castor & Pollux (1754) - Ainsworth, Sempey, De Negri, Margaine, Devieilhe, Immler; Ensemble Pygmalion, Raphaël Pichon
Жанр: Classical
Страна-производитель диска: France
Год издания диска: 2015
Издатель (лейбл): Harmonia Mundi
Номер по каталогу: HMC902212.13
Дата записи: 2014
Аудиокодек: FLAC
Тип рипа: image+.cue
Битрейт аудио: lossless
Продолжительность: 2:19:31
Источник: собственный рип
Наличие сканов в содержимом раздачи: да
Треклист:
Jean-Philippe Rameau
Castor & Pollux (version de 1754)
Tragédie en musique en 5 actes
Livret Pierre-Joseph Bernard (Gentil-Bernard)
CD1
[1] Ouverture
[2]-[14] Acte I
[15]-[26] Acte II
[27]-[32] Acte III (Scène 1 - Scène 3)
CD2
[1]-[10] Acte III (Scène 4)
[11]-[30] Acte IV
[31]-[45] Acte V
Исполнители:
Castor Colin Ainsworth ténor
Pollux Florian Sempey baryton
Télaïre Emmanuelle de Negri soprano
Phébé Clémentine Margaine mezzo-soprano
Jupiter Christian Immler baryton
Cléone, Une Ombre heureuse, Une Suivante d’Hébé Sabine Devieilhe soprano
Un Athlète, Mercure, un Spartiate Philippe Talbot ténor
Le Grand Prêtre de Jupiter Virgile Ancely basse
Ensemble Pygmalion
Raphaël Pichon
direction

Лог создания рипа: CD1

Exact Audio Copy V1.1 from 23. June 2015
EAC extraction logfile from 19. November 2015, 22:25
Ensemble Pygmalion, Raphaël Pichon / Rameau - Castor et Pollux - CD1
Used drive : HL-DT-STDVDRAM GU70N Adapter: 1 ID: 0
Read mode : SecureUtilize accurate stream : YesDefeat audio cache : YesMake use of C2 pointers : No
Read offset correction : 48Overread into Lead-In and Lead-Out : NoFill up missing offset samples with silence : YesDelete leading and trailing silent blocks : NoNull samples used in CRC calculations : YesUsed interface : Native Win32 interface for Win NT & 2000
Used output format : User Defined EncoderSelected bitrate : 128 kBit/sQuality : HighAdd ID3 tag : NoCommand line compressor : C:\Program Files (x86)\Exact Audio Copy\Flac\flac.exeAdditional command line options : -V -8 -T "Date=%year%" -T "Genre=%genre%" %source%
TOC of the extracted CD
Track | Start | Length | Start sector | End sector --------------------------------------------------------- 1 | 0:00.00 | 4:24.65 | 0 | 19864 2 | 4:24.65 | 4:16.63 | 19865 | 39127 3 | 8:41.53 | 2:40.69 | 39128 | 51196 4 | 11:22.47 | 3:12.15 | 51197 | 65611 5 | 14:34.62 | 1:50.58 | 65612 | 73919 6 | 16:25.45 | 1:44.59 | 73920 | 81778 7 | 18:10.29 | 2:00.28 | 81779 | 90806 8 | 20:10.57 | 2:20.47 | 90807 | 101353 9 | 22:31.29 | 2:41.27 | 101354 | 113455 10 | 25:12.56 | 2:06.32 | 113456 | 122937 11 | 27:19.13 | 1:30.13 | 122938 | 129700 12 | 28:49.26 | 0:45.05 | 129701 | 133080 13 | 29:34.31 | 1:13.74 | 133081 | 138629 14 | 30:48.30 | 0:59.31 | 138630 | 143085 15 | 31:47.61 | 4:04.68 | 143086 | 161453 16 | 35:52.54 | 5:24.11 | 161454 | 185764 17 | 41:16.65 | 1:31.63 | 185765 | 192652 18 | 42:48.53 | 0:19.45 | 192653 | 194122 19 | 43:08.23 | 1:00.38 | 194123 | 198660 20 | 44:08.61 | 0:27.34 | 198661 | 200719 21 | 44:36.20 | 1:56.46 | 200720 | 209465 22 | 46:32.66 | 3:11.64 | 209466 | 223854 23 | 49:44.55 | 0:30.16 | 223855 | 226120 24 | 50:14.71 | 2:44.08 | 226121 | 238428 25 | 52:59.04 | 3:26.07 | 238429 | 253885 26 | 56:25.11 | 2:46.50 | 253886 | 266385 27 | 59:11.61 | 3:01.64 | 266386 | 280024 28 | 62:13.50 | 0:07.42 | 280025 | 280591 29 | 62:21.17 | 1:30.04 | 280592 | 287345 30 | 63:51.21 | 0:42.59 | 287346 | 290554 31 | 64:34.05 | 2:37.41 | 290555 | 302370 32 | 67:11.46 | 2:05.44 | 302371 | 311789
Range status and errors
Selected range
Filename C:\temp\Rameau - Castor & Pollux - Pygmalion, Pichon\CD1\Rameau - Castor et Pollux - CD1.wav
Peak level 98.1 % Extraction speed 5.2 X Range quality 100.0 % Test CRC 0593FC5D Copy CRC 0593FC5D Copy OK
No errors occurred
AccurateRip summary
Track 1 accurately ripped (confidence 3) [64168B21] (AR v2)Track 2 accurately ripped (confidence 3) [F7649683] (AR v2)Track 3 accurately ripped (confidence 3) [26E5EE2D] (AR v2)Track 4 accurately ripped (confidence 3) [C5ABEE4C] (AR v2)Track 5 accurately ripped (confidence 3) [91FA5693] (AR v2)Track 6 accurately ripped (confidence 3) [7EDE4A16] (AR v2)Track 7 accurately ripped (confidence 3) [C0999917] (AR v2)Track 8 accurately ripped (confidence 3) [D763471C] (AR v2)Track 9 accurately ripped (confidence 3) [60BD5113] (AR v2)Track 10 accurately ripped (confidence 3) [20862D8F] (AR v2)Track 11 accurately ripped (confidence 3) [4FD6BCD6] (AR v2)Track 12 accurately ripped (confidence 3) [35CE7C82] (AR v2)Track 13 accurately ripped (confidence 3) [D2D22D61] (AR v2)Track 14 accurately ripped (confidence 3) [82D0CA77] (AR v2)Track 15 accurately ripped (confidence 3) [BC32CBFD] (AR v2)Track 16 accurately ripped (confidence 3) [0E3B86CB] (AR v2)Track 17 accurately ripped (confidence 3) [21450EB8] (AR v2)Track 18 accurately ripped (confidence 3) [6B9B802E] (AR v2)Track 19 accurately ripped (confidence 3) [7F088153] (AR v2)Track 20 accurately ripped (confidence 3) [EB85A849] (AR v2)Track 21 accurately ripped (confidence 3) [60E866D9] (AR v2)Track 22 accurately ripped (confidence 3) [C733A70D] (AR v2)Track 23 accurately ripped (confidence 3) [C3C77362] (AR v2)Track 24 accurately ripped (confidence 3) [79E26F62] (AR v2)Track 25 accurately ripped (confidence 3) [C5ECB40A] (AR v2)Track 26 accurately ripped (confidence 3) [8029D3B9] (AR v2)Track 27 accurately ripped (confidence 3) [6E30E033] (AR v2)Track 28 accurately ripped (confidence 3) [7780645F] (AR v2)Track 29 accurately ripped (confidence 3) [5A7323C3] (AR v2)Track 30 accurately ripped (confidence 3) [C5851B1E] (AR v2)Track 31 accurately ripped (confidence 3) [BAA1D5B3] (AR v2)Track 32 accurately ripped (confidence 3) [8471EFE3] (AR v2)
All tracks accurately ripped
End of status report
==== Log checksum 511419713F26266DDD202CFE79D4DC4CBC2DCA072B13AF1DDC2E27707CD606AA ====

Лог создания рипа: CD2

Exact Audio Copy V1.1 from 23. June 2015
EAC extraction logfile from 20. November 2015, 0:58
Ensemble Pygmalion, Raphaël Pichon / Rameau - Castor et Pollux - CD2
Used drive : HL-DT-STDVDRAM GU70N Adapter: 1 ID: 0
Read mode : SecureUtilize accurate stream : YesDefeat audio cache : YesMake use of C2 pointers : No
Read offset correction : 48Overread into Lead-In and Lead-Out : NoFill up missing offset samples with silence : YesDelete leading and trailing silent blocks : NoNull samples used in CRC calculations : YesUsed interface : Native Win32 interface for Win NT & 2000
Used output format : User Defined EncoderSelected bitrate : 128 kBit/sQuality : HighAdd ID3 tag : NoCommand line compressor : C:\Program Files (x86)\Exact Audio Copy\Flac\flac.exeAdditional command line options : -V -8 -T "Date=%year%" -T "Genre=%genre%" %source%
TOC of the extracted CD
Track | Start | Length | Start sector | End sector --------------------------------------------------------- 1 | 0:00.00 | 1:24.69 | 0 | 6368 2 | 1:24.69 | 0:45.11 | 6369 | 9754 3 | 2:10.05 | 0:24.17 | 9755 | 11571 4 | 2:34.22 | 0:55.72 | 11572 | 15768 5 | 3:30.19 | 1:12.56 | 15769 | 21224 6 | 4:43.00 | 1:52.59 | 21225 | 29683 7 | 6:35.59 | 0:28.27 | 29684 | 31810 8 | 7:04.11 | 3:23.46 | 31811 | 47081 9 | 10:27.57 | 1:36.66 | 47082 | 54347 10 | 12:04.48 | 0:51.19 | 54348 | 58191 11 | 12:55.67 | 2:40.17 | 58192 | 70208 12 | 15:36.09 | 0:14.29 | 70209 | 71287 13 | 15:50.38 | 1:25.01 | 71288 | 77663 14 | 17:15.39 | 1:47.38 | 77664 | 85726 15 | 19:03.02 | 1:47.49 | 85727 | 93800 16 | 20:50.51 | 1:22.28 | 93801 | 99978 17 | 22:13.04 | 2:00.31 | 99979 | 109009 18 | 24:13.35 | 1:02.40 | 109010 | 113699 19 | 25:16.00 | 1:01.56 | 113700 | 118330 20 | 26:17.56 | 3:57.63 | 118331 | 136168 21 | 30:15.44 | 0:42.39 | 136169 | 139357 22 | 30:58.08 | 0:56.63 | 139358 | 143620 23 | 31:54.71 | 1:01.03 | 143621 | 148198 24 | 32:55.74 | 1:10.24 | 148199 | 153472 25 | 34:06.23 | 1:12.42 | 153473 | 158914 26 | 35:18.65 | 1:06.47 | 158915 | 163911 27 | 36:25.37 | 1:43.47 | 163912 | 171683 28 | 38:09.09 | 0:12.66 | 171684 | 172649 29 | 38:22.00 | 3:20.29 | 172650 | 187678 30 | 41:42.29 | 1:41.59 | 187679 | 195312 31 | 43:24.13 | 1:57.16 | 195313 | 204103 32 | 45:21.29 | 3:04.52 | 204104 | 217955 33 | 48:26.06 | 2:33.30 | 217956 | 229460 34 | 50:59.36 | 1:22.62 | 229461 | 235672 35 | 52:22.23 | 1:44.66 | 235673 | 243538 36 | 54:07.14 | 1:33.36 | 243539 | 250549 37 | 55:40.50 | 1:11.57 | 250550 | 255931 38 | 56:52.32 | 0:32.16 | 255932 | 258347 39 | 57:24.48 | 1:22.63 | 258348 | 264560 40 | 58:47.36 | 1:23.30 | 264561 | 270815 41 | 60:10.66 | 1:42.15 | 270816 | 278480 42 | 61:53.06 | 0:31.52 | 278481 | 280857 43 | 62:24.58 | 1:36.33 | 280858 | 288090 44 | 64:01.16 | 4:23.05 | 288091 | 307820 45 | 68:24.21 | 1:46.47 | 307821 | 315817
Range status and errors
Selected range
Filename C:\temp\Rameau - Castor & Pollux - Pygmalion, Pichon\CD2\Rameau - Castor et Pollux - CD2.wav
Peak level 100.0 % Extraction speed 5.2 X Range quality 100.0 % Test CRC CCB30FC3 Copy CRC CCB30FC3 Copy OK
No errors occurred
AccurateRip summary
Track 1 accurately ripped (confidence 3) [66AA16A8] (AR v2)Track 2 accurately ripped (confidence 3) [11DED759] (AR v2)Track 3 accurately ripped (confidence 3) [6CDAFBAD] (AR v2)Track 4 accurately ripped (confidence 3) [DA82AE4F] (AR v2)Track 5 accurately ripped (confidence 3) [D6088626] (AR v2)Track 6 accurately ripped (confidence 3) [2DCE10F9] (AR v2)Track 7 accurately ripped (confidence 3) [F30B985D] (AR v2)Track 8 accurately ripped (confidence 3) [43BA4E40] (AR v2)Track 9 accurately ripped (confidence 3) [904EF1DB] (AR v2)Track 10 accurately ripped (confidence 3) [07A48506] (AR v2)Track 11 accurately ripped (confidence 3) [4B35DBE2] (AR v2)Track 12 accurately ripped (confidence 3) [23C14717] (AR v2)Track 13 accurately ripped (confidence 3) [AC65F571] (AR v2)Track 14 accurately ripped (confidence 3) [E8EBF583] (AR v2)Track 15 accurately ripped (confidence 3) [CEEEF541] (AR v2)Track 16 accurately ripped (confidence 3) [81CA6462] (AR v2)Track 17 accurately ripped (confidence 3) [2AF335BB] (AR v2)Track 18 accurately ripped (confidence 3) [7506EBB5] (AR v2)Track 19 accurately ripped (confidence 3) [61CD2E33] (AR v2)Track 20 accurately ripped (confidence 3) [8F7CEAA8] (AR v2)Track 21 accurately ripped (confidence 3) [179FD490] (AR v2)Track 22 accurately ripped (confidence 3) [546E0AB6] (AR v2)Track 23 accurately ripped (confidence 3) [40AD1855] (AR v2)Track 24 accurately ripped (confidence 3) [872B3D1D] (AR v2)Track 25 accurately ripped (confidence 3) [2A48B2A2] (AR v2)Track 26 accurately ripped (confidence 3) [BB69E5CD] (AR v2)Track 27 accurately ripped (confidence 3) [8E9FEAE0] (AR v2)Track 28 accurately ripped (confidence 3) [A1845DA4] (AR v2)Track 29 accurately ripped (confidence 3) [B31845CE] (AR v2)Track 30 accurately ripped (confidence 3) [089866A7] (AR v2)Track 31 accurately ripped (confidence 3) [6F79384D] (AR v2)Track 32 accurately ripped (confidence 3) [F455BC2D] (AR v2)Track 33 accurately ripped (confidence 3) [E02F1800] (AR v2)Track 34 accurately ripped (confidence 3) [A9C809ED] (AR v2)Track 35 accurately ripped (confidence 3) [1033E197] (AR v2)Track 36 accurately ripped (confidence 3) [A093563C] (AR v2)Track 37 accurately ripped (confidence 3) [2BE40A62] (AR v2)Track 38 accurately ripped (confidence 3) [EA25E4F0] (AR v2)Track 39 accurately ripped (confidence 3) [8DC1FE5D] (AR v2)Track 40 accurately ripped (confidence 3) [3DDFF576] (AR v2)Track 41 accurately ripped (confidence 3) [6B9A41D1] (AR v2)Track 42 accurately ripped (confidence 3) [636996E8] (AR v2)Track 43 accurately ripped (confidence 3) [6716BE3F] (AR v2)Track 44 accurately ripped (confidence 3) [91D8AFF1] (AR v2)Track 45 accurately ripped (confidence 3) [E9DF28A7] (AR v2)
All tracks accurately ripped
End of status report
==== Log checksum A589A0AF6EC8C13C9C6C732F7AA9336CD17A69EC2B019C5B1C54FA8C19C956D8 ====



Показать сообщения:    

Текущее время: 06-Дек 15:11

Часовой пояс: UTC + 3


Вы не можете начинать темы
Вы не можете отвечать на сообщения
Вы не можете редактировать свои сообщения
Вы не можете удалять свои сообщения
Вы не можете голосовать в опросах
Вы не можете прикреплять файлы к сообщениям
Вы не можете скачивать файлы