Урок / The Lesson (Кристина Грожева / Kristina Grozeva, Петар Валханов / Petar Valchanov) [2014, Болгария, Греция, Драма, DVDRip] + Sub Rus


Статистика раздачи [Обновить пиров]
Размер:  1.91 GB   |    Зарегистрирован:  1 год   |    Скачан:  0 раз

Полного источника не было: Никогда

 
   
 
 
 

[Цитировать]

Урок / The Lesson
Страна: Болгария, Греция
Жанр: Драма
Год выпуска: 2014
Продолжительность: 01:53:23
Перевод: Субтитры
Cубтитры: русские
Оригинальная аудиодорожка: болгарский
Режиссер: Кристина Грожева / Kristina Grozeva, Петар Валханов / Petar Valchanov
В ролях: Маргарита Гошева / Margita Gosheva, Иван Барнев / Ivan Barnev, Иван Савов / Ivan Savov
Описание: Учительница, живущая в провинциальном болгарском городке, оказывается в безвыходном положении и вынуждена прибегнуть к отчаянным мерам, чтобы выйти из финансового тупика, а затем — преодолеть моральные последствия своих действий.
Сэмпл: http://sendfile.su/1178663
Качество видео: DVDRip
Формат видео: MKV
Видео: 2 000 Kbps, 716*460 (1.85:1), at 23.976 fps, AVC (High@L3.2)(CABAC/15 Ref Frames)
Аудио: 448 Kbps, 48.0 KHz, 16 bits, 6 channels, AC-3
Формат субтитров: softsub (SRT)

MediaInfo

General
Unique ID : 201207768349333662930687398191725781065 (0x975F34E470DD836DA02ADADFED17A049)
Complete name : C:\Users\Никита\Desktop\Urok.2014.DVDrip.AC3.x264-Pedotriba.mkv
Format : Matroska
Format version : Version 4 / Version 2
File size : 1.91 GiB
Duration : 1h 51mn
Overall bit rate : 2 450 Kbps
Encoded date : UTC 2015-11-30 13:53:50
Writing application : mkvmerge v7.6.0 ('Garden of Dreams') 64bit built on Feb 8 2015 13:04:34
Writing library : Lavf55.12.0
DURATION : 01:46:07.795000000
NUMBER_OF_FRAMES : 701
NUMBER_OF_BYTES : 38152
_STATISTICS_WRITING_APP : mkvmerge v7.6.0 ('Garden of Dreams') 64bit built on Feb 8 2015 13:04:34
_STATISTICS_WRITING_DATE_UTC : 2015-11-30 13:53:50
_STATISTICS_TAGS : BPS DURATION NUMBER_OF_FRAMES NUMBER_OF_BYTES
Video
ID : 1
Format : AVC
Format/Info : Advanced Video Codec
Format profile : High@L3.2
Format settings, CABAC : Yes
Format settings, ReFrames : 15 frames
Codec ID : V_MPEG4/ISO/AVC
Duration : 1h 51mn
Bit rate : 2 000 Kbps
Width : 716 pixels
Height : 460 pixels
Display aspect ratio : 1.85:1
Original display aspect ratio : 1.85:1
Frame rate mode : Constant
Frame rate : 23.976 fps
Color space : YUV
Chroma subsampling : 4:2:0
Bit depth : 8 bits
Scan type : Progressive
Bits/(Pixel*Frame) : 0.253
Stream size : 1.52 GiB (80%)
Writing library : x264 core 142 r2479 dd79a61
Encoding settings : cabac=1 / ref=15 / deblock=1:-3:-3 / analyse=0x3:0x133 / me=umh / subme=11 / psy=1 / psy_rd=1.00:0.00 / mixed_ref=1 / me_range=64 / chroma_me=1 / trellis=2 / 8x8dct=1 / cqm=0 / deadzone=21,11 / fast_pskip=0 / chroma_qp_offset=-2 / threads=6 / lookahead_threads=1 / sliced_threads=0 / nr=0 / decimate=1 / interlaced=0 / bluray_compat=0 / constrained_intra=0 / bframes=10 / b_pyramid=2 / b_adapt=2 / b_bias=0 / direct=3 / weightb=1 / open_gop=0 / weightp=2 / keyint=240 / keyint_min=24 / scenecut=40 / intra_refresh=0 / rc_lookahead=100 / rc=2pass / mbtree=1 / bitrate=2000 / ratetol=1.0 / qcomp=0.60 / qpmin=0 / qpmax=69 / qpstep=4 / cplxblur=20.0 / qblur=0.5 / ip_ratio=1.40 / aq=1:1.00
Default : Yes
Forced : No
_STATISTICS_WRITING_APP : mkvmerge v7.6.0 ('Garden of Dreams') 64bit built on Feb 8 2015 13:04:34
_STATISTICS_WRITING_DATE_UTC : 2015-11-30 13:53:50
_STATISTICS_TAGS : BPS DURATION NUMBER_OF_FRAMES NUMBER_OF_BYTES
DURATION : 01:51:22.969000000
NUMBER_OF_FRAMES : 160231
NUMBER_OF_BYTES : 1670372672
Color primaries : BT.601 NTSC
Transfer characteristics : BT.709
Matrix coefficients : BT.601
Audio
ID : 2
Format : AC-3
Format/Info : Audio Coding 3
Mode extension : CM (complete main)
Format settings, Endianness : Big
Codec ID : A_AC3
Duration : 1h 51mn
Bit rate mode : Constant
Bit rate : 448 Kbps
Channel(s) : 6 channels
Channel positions : Front: L C R, Side: L R, LFE
Sampling rate : 48.0 KHz
Bit depth : 16 bits
Compression mode : Lossy
Stream size : 357 MiB (18%)
Title : Surround
Language : Bulgarian
Default : Yes
Forced : No
_STATISTICS_WRITING_APP : mkvmerge v7.6.0 ('Garden of Dreams') 64bit built on Feb 8 2015 13:04:34
_STATISTICS_WRITING_DATE_UTC : 2015-11-30 13:53:50
_STATISTICS_TAGS : BPS DURATION NUMBER_OF_FRAMES NUMBER_OF_BYTES
DURATION : 01:51:23.040000000
NUMBER_OF_FRAMES : 208845
NUMBER_OF_BYTES : 374250240
Text #1
ID : 3
Format : VobSub
Muxing mode : zlib
Codec ID : S_VOBSUB
Codec ID/Info : The same subtitle format used on DVDs
Language : English
Default : No
Forced : No
_STATISTICS_WRITING_APP : mkvmerge v7.6.0 ('Garden of Dreams') 64bit built on Feb 8 2015 13:04:34
_STATISTICS_WRITING_DATE_UTC : 2015-11-30 13:53:50
_STATISTICS_TAGS : BPS DURATION NUMBER_OF_FRAMES NUMBER_OF_BYTES
DURATION : 01:46:07.795000000
NUMBER_OF_FRAMES : 706
NUMBER_OF_BYTES : 837918
Text #2
ID : 4
Format : UTF-8
Codec ID : S_TEXT/UTF8
Codec ID/Info : UTF-8 Plain Text
Language : Russian
Default : No
Forced : No
Menu
00:00:00.000 : :1. The Thief
00:09:46.669 : :2. Camper
00:18:09.171 : :3. Debts
00:28:06.768 : :4. Looking for Help
00:38:29.390 : :5. Father
00:46:17.358 : :6. Mistakes
00:57:10.010 : :7. Rush
01:07:06.606 : :8. Search
01:14:08.527 : :9. Negotiations
01:25:01.179 : :10. Family Matters
01:34:54.272 : :11. Let's End It
01:48:25.082 : :12. Credits

Скриншот c названием фильма

Скриншоты

[teatrix.ru].t10889.torrent 
Торрент: Зарегистрирован [ 2015-12-01 05:10 ] · 66731EF614EA14C718DCA74A02BB39A65A4739A6

Скачать .torrent

Скачать

20 KB

Статус: проверено
Скачан: 0 раз
Размер: 1.91 GB
terms.php



Быстрый ответ

Имя:

      
Для отправки сообщений необходимо включить JavaScript
Показать сообщения:    

Текущее время: 04-Дек 21:26

Часовой пояс: UTC + 3


Вы можете начинать темы
Вы можете отвечать на сообщения
Вы не можете редактировать свои сообщения
Вы не можете удалять свои сообщения
Вы не можете голосовать в опросах
Вы не можете прикреплять файлы к сообщениям
Вы можете скачивать файлы