Мадлен, спокойно! (Роман Козак) [2001 г., музыкальный спектакль, VHSRip] Творческое объединение "Дуэт"


 

[Цитировать]

Мадлен, спокойно! Название театра: Творческое объединение "Дуэт".
Год выпуска: 2001.
Жанр: музыкальный спектакль.
Продолжительность: 01:25:56.
Режиссер: Роман Козак.
Действующие лица и исполнители:
Мадлен - Людмила Гурченко,
Симона - Лариса Кузнецова,
Жан - Евгений Князев,
Диего - Игорь Пиворович.
О спектакле:
Бывшая звезда мюзик-холла Мадлен прозябает в забвении со своей суетливой служанкой. Изредка к ней в гости наведывается сосед по дому, нелепый неудачник. Неожиданно о Мадлен вспоминает продюсер и приглашает за баснословный гонорар выступить на вечере "Звезды возвращаются". Начинается подготовка. Она упорно репетирует, надеясь на чудо: "Когда артист долго не выходит на сцену, а его любят, главное - не разочаровать зрителя". Сила воли и несгибаемость характера идет от главной героини, и провидцем быть не нужно, чтобы предсказать: блистать на вечере "Звезды возвращаются" Мадлен станет при любых обстоятельствах. Потому что звезды, собственно, никуда и не уходят - только ждут своего часа.
Дополнительная информация:
Страна: Россия .
Автор: Валентина Асланова.
Композитор: Давид Тухманов.

Еще постер

Релиз

Качество видео:...VHSRip
Формат:.................AVI
Видео:..640x480 (1.33:1), 25 fps, XviD build 73 ~1006 kbps avg, 0.13 bit/pixel
Аудио:..44.100 kHz, MPEG Layer 3, 2 ch, ~128.00 kbps avg

Отчет Media Info

General
Complete name : Madlen.spokoino_Tvorcheskoe.ob'edinenie.Duet.2001.XviD.VHSRip.fenixclub.avi
Format : AVI
Format/Info : Audio Video Interleave
File size : 703 MiB
Duration : 1h 25mn
Overall bit rate : 1 144 Kbps
Video
ID : 0
Format : MPEG-4 Visual
Format profile : Advanced Simple@L5
Format settings, BVOP : 2
Format settings, QPel : No
Format settings, GMC : No warppoints
Format settings, Matrix : Default (H.263)
Codec ID : XVID
Codec ID/Hint : XviD
Duration : 1h 25mn
Bit rate : 1 006 Kbps
Width : 640 pixels
Height : 480 pixels
Display aspect ratio : 4:3
Frame rate : 25.000 fps
Color space : YUV
Chroma subsampling : 4:2:0
Bit depth : 8 bits
Scan type : Progressive
Compression mode : Lossy
Bits/(Pixel*Frame) : 0.131
Stream size : 619 MiB (88%)
Writing library : XviD 73
Audio
ID : 1
Format : MPEG Audio
Format version : Version 1
Format profile : Layer 3
Mode : Joint stereo
Codec ID : 55
Codec ID/Hint : MP3
Duration : 1h 25mn
Bit rate mode : Constant
Bit rate : 128 Kbps
Channel(s) : 2 channels
Sampling rate : 44.1 KHz
Compression mode : Lossy
Stream size : 78.7 MiB (11%)
Alignment : Split accross interleaves
Interleave, duration : 40 ms (1.00 video frame)
Interleave, preload duratio : 500 ms.

Скриншоты


Альтернативный хост





Показать сообщения:    

Текущее время: 09-Дек 20:27

Часовой пояс: UTC + 3


Вы не можете начинать темы
Вы не можете отвечать на сообщения
Вы не можете редактировать свои сообщения
Вы не можете удалять свои сообщения
Вы не можете голосовать в опросах
Вы не можете прикреплять файлы к сообщениям
Вы не можете скачивать файлы