(Classical, 20th century) Bruno Maderna - Complete Works for Orchestra, Vol.2 - Thaddeus Watson, Claudia Barainsky, Sebastian Wittiber, Clara Andrada de la Calle, Frankfurt Radio Symphony Orchestra, Arturo Tamayo - 2009, FLAC (image+.cue) lossless


 

[Цитировать]

Bruno Maderna - Complete Works for Orchestra, Vol.2 - Thaddeus Watson, Claudia Barainsky, Sebastian Wittiber, Clara Andrada de la Calle, Frankfurt Radio Symphony Orchestra, Arturo Tamayo
Жанр: Classical, 20th century
Страна-производитель диска: Germany
Год издания диска: 2009
Издатель (лейбл): NEOS Music
Номер по каталогу: NEOS 10934
Дата записи: 2005, 2006
Аудиокодек: FLAC
Тип рипа: image+.cue
Битрейт аудио: lossless
Продолжительность: 75:15
Источник: собственный рип
Наличие сканов в содержимом раздачи: да
Треклист:
Bruno Maderna (1920–1973)
[1]-[3] Composizione in tre tempi (1954)
[4] Concerto per flauto e orchestre (1954)
Thaddeus Watson flute
[5] Aria (1964) for soprano, flute and orchestra
Claudia Barainsky soprano
Sebastian Wittiber flute
[6] Dimensioni III (1962–1963) for flute and orchestra
Clara Andrada de la Calle flute and piccolo
[7] Stele per Diotima (1966) for orchestra
Исполнители:
Thaddeus Watson flute
Claudia Barainsky soprano
Sebastian Wittiber flute
Clara Andrada de la Calle flute and piccolo
hr-Sinfonieorchester/Frankfurt Radio Symphony Orchestra
Arturo Tamayo
conductor

Лог создания рипа

Exact Audio Copy V1.1 from 23. June 2015
EAC extraction logfile from 26. November 2015, 0:23
Frankfurt RSO, Arturo Tamayo / Maderna - Complete Works for Orchestra, Vol.2
Used drive : HL-DT-STDVDRAM GU70N Adapter: 1 ID: 0
Read mode : SecureUtilize accurate stream : YesDefeat audio cache : YesMake use of C2 pointers : No
Read offset correction : 48Overread into Lead-In and Lead-Out : NoFill up missing offset samples with silence : YesDelete leading and trailing silent blocks : NoNull samples used in CRC calculations : YesUsed interface : Native Win32 interface for Win NT & 2000
Used output format : User Defined EncoderSelected bitrate : 128 kBit/sQuality : HighAdd ID3 tag : NoCommand line compressor : C:\Program Files (x86)\Exact Audio Copy\Flac\flac.exeAdditional command line options : -V -8 -T "Date=%year%" -T "Genre=%genre%" %source%
TOC of the extracted CD
Track | Start | Length | Start sector | End sector --------------------------------------------------------- 1 | 0:00.00 | 4:51.61 | 0 | 21885 2 | 4:51.61 | 6:41.06 | 21886 | 51966 3 | 11:32.67 | 4:09.15 | 51967 | 70656 4 | 15:42.07 | 8:04.17 | 70657 | 106973 5 | 23:46.24 | 14:16.30 | 106974 | 171203 6 | 38:02.54 | 17:23.34 | 171204 | 249462 7 | 55:26.13 | 19:47.17 | 249463 | 338504
Range status and errors
Selected range
Filename C:\temp\Maderna - Complete Works for Orchestra, Vol.2\Maderna - Complete Works for Orchestra, Vol.2.wav
Peak level 98.8 % Extraction speed 2.3 X Range quality 100.0 % Test CRC 8CFE60A5 Copy CRC 8CFE60A5 Copy OK
No errors occurred
AccurateRip summary
Track 1 accurately ripped (confidence 3) [30E3CDEE] (AR v2)Track 2 accurately ripped (confidence 3) [A5AD993D] (AR v2)Track 3 accurately ripped (confidence 3) [43FC2BD7] (AR v2)Track 4 accurately ripped (confidence 3) [EE138755] (AR v2)Track 5 accurately ripped (confidence 3) [965522AC] (AR v2)Track 6 accurately ripped (confidence 3) [5BCB24D3] (AR v2)Track 7 accurately ripped (confidence 3) [CC172178] (AR v2)
All tracks accurately ripped
End of status report
==== Log checksum 1E2146DBA66AD1B29D9E92486BDCF3EAA11BBE102F621A7E903730B58EDF815C ====



Показать сообщения:    

Текущее время: 09-Дек 14:40

Часовой пояс: UTC + 3


Вы не можете начинать темы
Вы не можете отвечать на сообщения
Вы не можете редактировать свои сообщения
Вы не можете удалять свои сообщения
Вы не можете голосовать в опросах
Вы не можете прикреплять файлы к сообщениям
Вы не можете скачивать файлы