Отчетный концерт любительских коллективов и творческих мастеров дворца культуры "Титан" / Звітний концерт аматорських колективів та творчих майстрів палацу культури "Титан" (Чистоедова-Римар Тетяна) [2015, Україна, Фестиваль, DVDR


 

[Цитировать]

Отчетный концерт любительских коллективов и творческих мастеров дворца культуры "Титан" / Звітний концерт аматорських колективів та творчих майстрів палацу культури "Титан"
Название театра: Палац культури "Титан"
Страна: Україна
Жанр: Фестиваль
Год выпуска: 2015
Продолжительность: 2.09.56
Режиссёр: Чистоедова-Римар Тетяна
В ролях: колектив "Радуга", колектив "Імпульс".
Описание: Отчетный концерт любительских коллективов и творческих мастеров дворца культуры "Титан"
Качество видео: DVDRip
Формат видео: MKV
Видео: Идентификатор : 224 (0xE0) Формат : MPEG Video Версия формата : Version 2 Профиль формата
Аудио: Идентификатор : 192 (0xC0) Формат : MPEG Audio Версия формата : Version 1 Профиль формата

MediaInfo

Общее
Полное имя : C:\Users\Tkach EI\Desktop\Звітний концерт колективів 27.11.15.mpg
Формат : MPEG-PS
Размер файла : 7,68 Гбайт
Продолжительность : 2 ч. 9 м.
Общий поток : 8459 Кбит/сек
Библиотека кодирования : encoded by TMPGEnc 4.0 XPress Version. 4.7.7.307
Видео
Идентификатор : 224 (0xE0)
Формат : MPEG Video
Версия формата : Version 2
Профиль формата : Main@Main
Параметр BVOP формата : Да
Параметр матрицы формата : Выборочная
Параметр GOP формата : M=3, N=13
Продолжительность : 2 ч. 9 м.
Битрейт : 8158 Кбит/сек
Ширина : 720 пикселей
Высота : 576 пикселей
Соотношение сторон : 16:9
Частота кадров : 25,000 кадров/сек
Стандарт вещания : PAL
Цветовое пространство : YUV
Субдискретизация насыщенности : 4:2:0
Битовая глубина : 8 бит
Тип развёртки : Прогрессивная
Метод сжатия : С потерями
Бит/(Пиксели*Кадры) : 0.787
Временной код первого кадра : 00:00:00:00
Оригинал временного кода : Group of pictures header
Размер потока : 7,35 Гбайт (96%)
Библиотека кодирования : TMPGEnc XPress 4.7.7.307
Основные цвета : BT.601 PAL
Характеристики трансфера : BT.470 System B, BT.470 System G
Коэффициенты матрицы : BT.601
Аудио
Идентификатор : 192 (0xC0)
Формат : MPEG Audio
Версия формата : Version 1
Профиль формата : Layer 2
Продолжительность : 2 ч. 9 м.
Вид битрейта : Постоянный
Битрейт : 192 Кбит/сек
Каналы : 2 канала
Частота : 48,0 КГц
Метод сжатия : С потерями
Размер потока : 178 Мбайт (2%)

Скриншот с названием постановки

Скриншоты




Показать сообщения:    

Текущее время: 08-Дек 14:58

Часовой пояс: UTC + 3


Вы не можете начинать темы
Вы не можете отвечать на сообщения
Вы не можете редактировать свои сообщения
Вы не можете удалять свои сообщения
Вы не можете голосовать в опросах
Вы не можете прикреплять файлы к сообщениям
Вы не можете скачивать файлы