Тайная любовь Пушкина / Таємна любов Пушкіна (Петр Миронов) [2014 г., Украина, спектакль-концерт, TVRip] Киевский театр поэзии и песни


 

[Цитировать]

Тайная любовь Пушкина / Таємна любов Пушкіна Название театра: Киевский театр поэзии и песни.
Год выпуска: 2014.
Страна: Украина .
Жанр: спектакль-концерт.
Продолжительность: 01:58:33.
Язык: Русский.
Режиссеры: заслуженный артист России Петр Миронов, Ольга Джигурда.
В спектакле принимают участие:
заслуженный артист России Петр Миронов,
Солист (бас) - Павел Денисенко,
Гитара - Борис Бельский.
О спектакле:
Театрально-телевизионный проект по стихам и романсам великого поэта.
Дополнительная информация:
Выпущено: Киевский театр поэзии и песни, ГТРК "Культура" (Украина).
Автор композиции и режиссер спектакля: заслуженный артист России Петр Миронов.
Автор идеи и продюсер: заслуженный деятель искусств Украины Семен Рубчинский.
В спектакле использована музыка Георгия Свиридова из кинофильма "Метель".
Художественный руководитель Киевского театра поэзии и песни: заслуженный деятель искусств Украины Семен Рубчинский.
Премьера спектакля состоялась 19 октября 2014 года.
Автор и режиссёр телеверсии: Ольга Джигурда.
Операторы: Борис Михайлов, Владислав Риков, Александр Ящиковский.

Релиз
Рип sharky.

Качество видео:...TVRip
Формат:.................AVI
Видео:..704x528 (1.33:1), 25 fps, DivX Codec 4.x ~1615 kbps avg, 0.17 bit/pixel
Аудио:..48 kHz, MPEG Layer 3, 2 ch, ~128.00 kbps avg

Отчет MediaInfo

Общее
Полное имя : Tajnaya.lyubov'.Pushkina_Kievskij.TPiP.im.V.S.Vysotskogo.2014.DivX.TVRip.fenixclub.avi
Format : AVI
Format/Info : Audio Video Interleave
File size : 1.45 GiB
Duration : 1h 58mn
Overall bit rate : 1 753 Kbps
Video
ID : 0
Format : MPEG-4 Visual
Format settings, BVOP : 1
Format settings, QPel : No
Format settings, GMC : No warppoints
Format settings, Matrix : Default (H.263)
Codec ID : DX50
Codec ID/Hint : DivX 5
Duration : 1h 58mn
Bit rate : 1 615 Kbps
Width : 704 pixels
Height : 528 pixels
Display aspect ratio : 4:3
Frame rate : 25.000 fps
Color space : YUV
Chroma subsampling : 4:2:0
Bit depth : 8 bits
Scan type : Progressive
Compression mode : Lossy
Bits/(Pixel*Frame) : 0.174
Stream size : 1.34 GiB (92%)
Title : Video
Writing library : DivX 3013
Audio
ID : 1
Format : MPEG Audio
Format version : Version 1
Format profile : Layer 3
Codec ID : 55
Codec ID/Hint : MP3
Duration : 1h 58mn
Bit rate mode : Constant
Bit rate : 128 Kbps
Channel(s) : 2 channels
Sampling rate : 48.0 KHz
Compression mode : Lossy
Stream size : 109 MiB (7%)
Alignment : Split accross interleaves
Interleave, duration : 40 ms (1.00 video frame)
Interleave, preload duratio : 500 ms
Title : Audio

Скриншоты


Альтернативный хост





Показать сообщения:    

Текущее время: 02-Дек 21:13

Часовой пояс: UTC + 3


Вы не можете начинать темы
Вы не можете отвечать на сообщения
Вы не можете редактировать свои сообщения
Вы не можете удалять свои сообщения
Вы не можете голосовать в опросах
Вы не можете прикреплять файлы к сообщениям
Вы не можете скачивать файлы