Обычное дело (2 действия) (Владимир Иванов) [2012, комедия, DVB, AVC] Государственный академический театр имени Евгения Вахтангова


 

[Цитировать]

Обычное дело (2 действия)
Название театра: Государственный академический театр имени Евгения Вахтангова
Жанр: комедия
Год выпуска: 2015
Продолжительность: 01:29:26 + 01:18:37
Режиссёр: Владимир Иванов
В ролях: Алексей Гуськов, Евгений Косырев, Мария Аронова, Лидия Вележева, Александр Рыщенков, Владислав Гандрабура, Мария Бердинских, Екатерина Крамзина, Василий Симонов, Кирилл Рубцов, Артур Иванов, Рубен Симонов, Артур Иванов, Агнесса Петерсон, Екатерина Симонова, Нино Кантария
Описание: Главный герой пьесы – ведущий невролог крупной лондонской больницы, вот-вот ему предстоит делать важнейший в его жизни и в его карьере доклад на международной медицинской конференции. Но тут на беду появляется его бывшая любовница, которую он оставил много лет назад. Женщина сообщает, что у них есть общий сын, которому вчера исполнилось 18 и который находится здесь же, в больнице, и мечтает найти своего отца...
Доп. информация:
Запись потока *.ts со спутника Intelsat-15 / Horizons 2, 85.2° в.д., ремукс в *.mkv программой VideoReDo.
Семпл: здесь
Качество видео: DVB
Формат видео: MKV
Видео: Advanced Video Codec, 720(1044)x576 (4:3), 25,000 кадров/сек, 2235 Кбит/сек
Аудио: MPEG Audio, 48,0 КГц, 160 Кбит/сек, 2 канала

MediaInfo

Общее
Уникальный идентификатор : 240288450645442631879403433380679025684 (0xB4C5DF4B0B8B31C4B59E99DA30A48414)
Полное имя : N:\TORRENT\ОБЫЧНОЕ ДЕЛО\ОБЫЧНОЕ ДЕЛО 1 (Театр).mkv
Формат : Matroska
Версия формата : Version 2
Размер файла : 1,49 Гбайт
Продолжительность : 1 ч. 29 м.
Общий поток : 2387 Кбит/сек
Программа кодирования : Lavf52.64.2
Библиотека кодирования : Lavf52.64.2
Видео
Идентификатор : 1
Формат : AVC
Формат/Информация : Advanced Video Codec
Профиль формата : Main@L3.0
Параметр CABAC формата : Да
Параметр ReFrames формата : 3 кадра
Идентификатор кодека : V_MPEG4/ISO/AVC
Продолжительность : 1 ч. 29 м.
Битрейт : 2180 Кбит/сек
Ширина : 720 пикселей
Высота : 576 пикселей
Соотношение сторон : 16:9
Соотношение сторон в оригинале : 16:9
Режим частоты кадров : Постоянный
Частота кадров : 25,000 кадров/сек
Стандарт вещания : Component
Цветовое пространство : YUV
Субдискретизация насыщенности : 4:2:0
Битовая глубина : 8 бит
Тип развёртки : Чересстрочная
Порядок развёртки : Верхнее поле первое
Бит/(Пиксели*Кадры) : 0.210
Размер потока : 1,36 Гбайт (91%)
Default : Да
Forced : Нет
Основные цвета : BT.601 PAL
Характеристики трансфера : BT.470 System B, BT.470 System G
Коэффициенты матрицы : BT.601
Аудио
Идентификатор : 2
Формат : MPEG Audio
Версия формата : Version 1
Профиль формата : Layer 2
Идентификатор кодека : A_MPEG/L2
Идентификатор кодека/Подсказка : MP2
Продолжительность : 1 ч. 29 м.
Вид битрейта : Постоянный
Битрейт : 160 Кбит/сек
Каналы : 2 канала
Частота : 48,0 КГц
Метод сжатия : С потерями
Размер потока : 102 Мбайт (7%)
Язык : Russian
Default : Да
Forced : Нет
Общее
Уникальный идентификатор : 37821941520767641874223543633288737893 (0x1C743DB067955E7CEC37FFA7CF01B465)
Полное имя : N:\TORRENT\ОБЫЧНОЕ ДЕЛО\ОБЫЧНОЕ ДЕЛО 2 (Театр).mkv
Формат : Matroska
Версия формата : Version 2
Размер файла : 1,34 Гбайт
Продолжительность : 1 ч. 18 м.
Общий поток : 2444 Кбит/сек
Программа кодирования : Lavf52.64.2
Библиотека кодирования : Lavf52.64.2
Видео
Идентификатор : 1
Формат : AVC
Формат/Информация : Advanced Video Codec
Профиль формата : Main@L3.0
Параметр CABAC формата : Да
Параметр ReFrames формата : 3 кадра
Параметр GOP формата : M=4, N=28
Идентификатор кодека : V_MPEG4/ISO/AVC
Продолжительность : 1 ч. 18 м.
Битрейт : 2235 Кбит/сек
Ширина : 720 пикселей
Высота : 576 пикселей
Соотношение сторон : 16:9
Соотношение сторон в оригинале : 16:9
Режим частоты кадров : Постоянный
Частота кадров : 25,000 кадров/сек
Стандарт вещания : Component
Цветовое пространство : YUV
Субдискретизация насыщенности : 4:2:0
Битовая глубина : 8 бит
Тип развёртки : Чересстрочная
Порядок развёртки : Верхнее поле первое
Бит/(Пиксели*Кадры) : 0.216
Размер потока : 1,23 Гбайт (91%)
Default : Да
Forced : Нет
Основные цвета : BT.601 PAL
Характеристики трансфера : BT.470 System B, BT.470 System G
Коэффициенты матрицы : BT.601
Аудио
Идентификатор : 2
Формат : MPEG Audio
Версия формата : Version 1
Профиль формата : Layer 2
Идентификатор кодека : A_MPEG/L2
Идентификатор кодека/Подсказка : MP2
Продолжительность : 1 ч. 18 м.
Вид битрейта : Постоянный
Битрейт : 160 Кбит/сек
Каналы : 2 канала
Частота : 48,0 КГц
Метод сжатия : С потерями
Размер потока : 90,0 Мбайт (7%)
Язык : Russian
Default : Да
Forced : Нет

Скриншот с названием постановки

Скриншоты




Показать сообщения:    

Текущее время: 08-Дек 07:09

Часовой пояс: UTC + 3


Вы не можете начинать темы
Вы не можете отвечать на сообщения
Вы не можете редактировать свои сообщения
Вы не можете удалять свои сообщения
Вы не можете голосовать в опросах
Вы не можете прикреплять файлы к сообщениям
Вы не можете скачивать файлы