(Classical, 20th century) Дмитрий Шостакович - Симфония №10; Пассакалия из оперы - Boston Symphony Orchestra, Andris Nelsons - 2015, FLAC (image+.cue) lossless


 

[Цитировать]

Дмитрий Шостакович - Симфония №10; Пассакалия из оперы - Boston Symphony Orchestra, Andris Nelsons
Жанр: Classical, 20th century
Страна-производитель диска: Germany
Год издания диска: 2015
Издатель (лейбл): Deutsche Grammophon
Дата записи: 2015
Аудиокодек: FLAC
Тип рипа: image+.cue
Битрейт аудио: lossless
Продолжительность: 64:52
Источник: собственный рип
Наличие сканов в содержимом раздачи: да
Треклист:
Дмитрий Шостакович
[1] Пассакалия из оперы "Леди Макбет Мценского уезда"
[2]-[5] Симфония №10 ми минор, Op.93
Исполнители:
Boston Symphony Orchestra
Andris Nelsons

Лог создания рипа

Exact Audio Copy V1.1 from 23. June 2015
EAC extraction logfile from 8. November 2015, 20:08
Boston Symphony Orchestra, Andris Nelsons / Shostakovich - Symphony No.10; Passacaglia
Used drive : HL-DT-STDVDRAM GU70N Adapter: 1 ID: 0
Read mode : SecureUtilize accurate stream : YesDefeat audio cache : YesMake use of C2 pointers : No
Read offset correction : 48Overread into Lead-In and Lead-Out : NoFill up missing offset samples with silence : YesDelete leading and trailing silent blocks : NoNull samples used in CRC calculations : YesUsed interface : Native Win32 interface for Win NT & 2000
Used output format : User Defined EncoderSelected bitrate : 128 kBit/sQuality : HighAdd ID3 tag : NoCommand line compressor : C:\Program Files (x86)\Exact Audio Copy\Flac\flac.exeAdditional command line options : -V -8 -T "Date=%year%" -T "Genre=%genre%" %source%
TOC of the extracted CD
Track | Start | Length | Start sector | End sector --------------------------------------------------------- 1 | 0:00.00 | 8:10.63 | 0 | 36812 2 | 8:10.63 | 25:39.23 | 36813 | 152260 3 | 33:50.11 | 4:21.58 | 152261 | 171893 4 | 38:11.69 | 12:44.21 | 171894 | 229214 5 | 50:56.15 | 13:54.17 | 229215 | 291781
Range status and errors
Selected range
Filename C:\temp\Shostakovich - Symphony No.10; Passacaglia - Boston SO, Nelsons\Shostakovich - Symphony No.10; Passacaglia.wav
Peak level 100.0 % Extraction speed 3.4 X Range quality 100.0 % Test CRC E2688871 Copy CRC E2688871 Copy OK
No errors occurred
AccurateRip summary
Track 1 accurately ripped (confidence 3) [86C250E7] (AR v2)Track 2 accurately ripped (confidence 3) [C7F2C666] (AR v2)Track 3 accurately ripped (confidence 3) [9EDCB2BF] (AR v2)Track 4 accurately ripped (confidence 3) [5CC9A86D] (AR v2)Track 5 accurately ripped (confidence 3) [1DB374E9] (AR v2)
All tracks accurately ripped
End of status report
==== Log checksum 436EA4D2AEFEF4FA47BF8DBB663EC2A7068D0AB9CBE62978C1B31DF7F0B6DCA9 ====



Показать сообщения:    

Текущее время: 18-Янв 00:23

Часовой пояс: UTC + 3


Вы не можете начинать темы
Вы не можете отвечать на сообщения
Вы не можете редактировать свои сообщения
Вы не можете удалять свои сообщения
Вы не можете голосовать в опросах
Вы не можете прикреплять файлы к сообщениям
Вы не можете скачивать файлы