Голова-утиль / Junk Head 1 (Такахиде Хори / Takahide Hori) [2014, Япония, авторская анимация, постапокалипсис, WEBRip-AVC] original + rus sub


 

[Цитировать]

Голова-утиль / Junk Head 1
Страна: Япония
Жанр: авторская анимация, постапокалипсис
Год выпуска: 2014
Продолжительность: 00:30:50
Перевод: субтитры (alex.n42)
Cубтитры: русские
Режиссёр: Такахиде Хори / Takahide Hori
Описание: Действие фильма происходит в далёком будущем, спустя тысячу лет после войны людей и клонов. Теперь мир поделён на множество уровней: верхний населяют люди, представляющие из себя гибриды плоти и электроники, на нижних уровнях обитают различные безобразные мутанты. Но именно здесь остался биологический материал, необходимый человечеству, утерявшему способность к воспроизводству.
Разведчик с верхнего уровня отправляется глубоко вниз, однако в пункт назначения попадает только его голова... Но это лишь начало истории...
Доп. информация: Этот отлично срежиссированный, сюжетно-непредсказуемый фильм Такахиде Хори создал практически в одиночку: изготовил кукол и декорации, выполнил покадровое анимирование и даже озвучил на разные голоса всех персонажей.
Качество видео: WEBRip-AVC
Формат видео: MP4
Видео: 1697 kbps, 1280х720 (16:9), 24.000 fps, AVC (High@L3.1)
Аудио: 192 kbps, 44.1 kHz, 2 channels, AAC (LC)
Формат субтитров: английские - hardsub, русские - softsub (SRT)
Релиз:

MediaInfo

General
Complete name : Junk Head 1 (2014).mp4
Format : MPEG-4
Format profile : Base Media / Version 2
Codec ID : mp42
File size : 417 MiB
Duration : 30mn 50s
Overall bit rate mode : Variable
Overall bit rate : 1 891 Kbps
Encoded date : UTC 2013-12-30 12:00:54
Tagged date : UTC 2013-12-30 12:00:54
gsst : 0
gstd : 1850606
gssd : B4A7D6E07MM1442651988825691
gshh : r7---sn-n8v7lnez.googlevideo.com
Video
ID : 1
Format : AVC
Format/Info : Advanced Video Codec
Format profile : High@L3.1
Format settings, CABAC : Yes
Format settings, ReFrames : 1 frame
Format settings, GOP : M=1, N=60
Codec ID : avc1
Codec ID/Info : Advanced Video Coding
Duration : 30mn 50s
Bit rate : 1 697 Kbps
Maximum bit rate : 8 666 Kbps
Width : 1 280 pixels
Height : 720 pixels
Display aspect ratio : 16:9
Frame rate mode : Constant
Frame rate : 24.000 fps
Color space : YUV
Chroma subsampling : 4:2:0
Bit depth : 8 bits
Scan type : Progressive
Bits/(Pixel*Frame) : 0.077
Stream size : 374 MiB (90%)
Tagged date : UTC 2013-12-30 12:01:32
Audio
ID : 2
Format : AAC
Format/Info : Advanced Audio Codec
Format profile : LC
Codec ID : 40
Duration : 30mn 50s
Bit rate mode : Variable
Bit rate : 192 Kbps
Maximum bit rate : 202 Kbps
Channel(s) : 2 channels
Channel positions : Front: L R
Sampling rate : 44.1 KHz
Compression mode : Lossy
Stream size : 42.4 MiB (10%)
Title : IsoMedia File Produced by Google, 5-11-2011
Encoded date : UTC 2013-12-30 12:01:21
Tagged date : UTC 2013-12-30 12:01:32

Скриншот c названием фильма

Скриншоты

Пример субтитров

1
00:00:01,230 --> 00:00:03,100
Это независимый кукольный анимационный фильм.
2
00:00:03,130 --> 00:00:06,700
Я создавал его почти полностью один,
в свободное время, в течение четырёх лет.
3
00:00:06,730 --> 00:00:12,450
Не было большого бюджета - этот фильм был сделан
ради идеи и желания увидеть его законченным.
Пожалуйста, посмотрите до конца.
4
00:00:29,700 --> 00:00:36,380
В далеком будущем человечество достигло долголетия
путём генной инженерии. Однако, взамен
была утеряна способность к воспроизведению.
5
00:00:46,180 --> 00:00:51,600
Клоны создавались, чтобы поддерживать истощающуюся
работоспособность, но 1200 лет назад они восстали.
6
00:01:01,270 --> 00:01:08,570
Люди, вдруг осознали необходимость исследовать
их подземные жилища, начать экологическую разведку.
7
00:01:25,250 --> 00:01:35,700
ГОЛОВА-УТИЛЬ
8
00:02:55,630 --> 00:02:57,500
Подвес будет сброшен через…
9
00:04:08,930 --> 00:04:11,470
Давайте уже возвращаться!
10
00:04:13,900 --> 00:04:16,160
Пошли назааад!
11
00:04:18,680 --> 00:04:21,660
Давай. Пойдём. Назад. Сейчааас!
12
00:05:14,590 --> 00:05:18,340
Хмм, оно мигнуло опять и снова.
Интересно, что это такое.
13
00:05:18,660 --> 00:05:24,060
Кто знает?
Это что-то для Доктора, надо думать.
14
00:05:24,350 --> 00:05:28,900
А ты, идиот, не беспокойся.



Показать сообщения:    

Текущее время: 10-Дек 11:54

Часовой пояс: UTC + 3


Вы не можете начинать темы
Вы не можете отвечать на сообщения
Вы не можете редактировать свои сообщения
Вы не можете удалять свои сообщения
Вы не можете голосовать в опросах
Вы не можете прикреплять файлы к сообщениям
Вы не можете скачивать файлы