Сын / Son (Арсений Гончуков) [2014, Россия, драма, SATRip-AVC]


Статистика раздачи [Обновить пиров]
Размер:  576 MB   |    Зарегистрирован:  1 год   |    Скачан:  1 раз

Полного источника не было: 4 месяца 27 дней

 
   
 
 
 

[Цитировать]

Сын / Son
Страна: Россия
Жанр: драма
Год выпуска: 2014
Продолжительность: 01:32:32
Перевод: Не требуется
Cубтитры: нет
Режиссер: Арсений Гончуков
В ролях: Алексей Черных, Вадим Андреев, Ольга Малахова, Лидия Омутных, Елена Тонунц, Оксана Эрдлей, Янина Когут, Валерий Карибьян, Дмитрий Курьянов, Дмитрий Файнштейн
Описание: Много лет Андрей ухаживает за беспомощной мамой-инвалидом. Чтобы заработать деньги, необходимые для ее лечения за границей, он постепенно втягивается в криминальный бизнес. Оставшись один, Андрей попытается выяснить: кто же виноват в болезни матери и почему он должен был в одиночку бороться с общей бедой их семьи?
Сэмпл: http://sendfile.su/1179343
Качество видео: SATRip-AVC
Формат видео: MKV
Видео: h264 712x432 (16:9) 25fps crf=20 662Kbps
Аудио: mp2 48000Hz 2ch mono 192Kbps

MediaInfo

Format : Matroska
Format version : Version 2
File size : 576 MiB
Duration : 1h 32mn
Overall bit rate : 871 Kbps
Encoded date : UTC 2015-12-02 19:25:17
Writing application : mkvmerge v5.8.0 ('No Sleep / Pillow') built on Sep 2 2012 15:37:04
Writing library : libebml v1.2.3 + libmatroska v1.3.0
Video
ID : 1
Format : AVC
Format/Info : Advanced Video Codec
Format profile : High@L4.1
Format settings, CABAC : Yes
Format settings, ReFrames : 5 frames
Codec ID : V_MPEG4/ISO/AVC
Duration : 1h 32mn
Bit rate : 662 Kbps
Width : 712 pixels
Height : 432 pixels
Display aspect ratio : 16:9
Frame rate mode : Constant
Frame rate : 25.000 fps
Color space : YUV
Chroma subsampling : 4:2:0
Bit depth : 8 bits
Scan type : Progressive
Bits/(Pixel*Frame) : 0.086
Stream size : 438 MiB (76%)
Writing library : x264 core 125 r2208 d9d2288
Encoding settings : cabac=1 / ref=5 / deblock=1:-1:-1 / analyse=0x3:0x113 / me=umh / subme=8 / psy=1 / psy_rd=1.00:0.10 / mixed_ref=1 / me_range=16 / chroma_me=1 / trellis=1 / 8x8dct=1 / cqm=0 / deadzone=21,11 / fast_pskip=1 / chroma_qp_offset=-3 / threads=6 / lookahead_threads=1 / sliced_threads=0 / nr=0 / decimate=1 / interlaced=0 / bluray_compat=0 / constrained_intra=0 / bframes=3 / b_pyramid=2 / b_adapt=2 / b_bias=0 / direct=3 / weightb=1 / open_gop=0 / weightp=2 / keyint=250 / keyint_min=25 / scenecut=40 / intra_refresh=0 / rc_lookahead=50 / rc=crf / mbtree=1 / crf=20.0 / qcomp=0.60 / qpmin=0 / qpmax=69 / qpstep=4 / ip_ratio=1.40 / aq=1:1.00
Default : Yes
Forced : No
Audio
ID : 2
Format : MPEG Audio
Format version : Version 1
Format profile : Layer 2
Codec ID : A_MPEG/L2
Codec ID/Hint : MP2
Duration : 1h 32mn
Bit rate mode : Constant
Bit rate : 192 Kbps
Channel(s) : 2 channels
Sampling rate : 48.0 KHz
Compression mode : Lossy
Stream size : 127 MiB (22%)
Default : Yes
Forced : No

Скриншот c названием фильма

Скриншоты

[teatrix.ru].t10909.torrent 
Торрент: Зарегистрирован [ 2015-12-03 20:35 ] · 637459C21AE1DDD79B16B6C12C8260F53F9E7E9D

Скачать .torrent

Скачать

12 KB

Статус: проверено
Скачан: 1 раз
Размер: 576 MB
terms.php



Быстрый ответ

Имя:

      
Для отправки сообщений необходимо включить JavaScript
Показать сообщения:    

Текущее время: 04-Дек 19:23

Часовой пояс: UTC + 3


Вы можете начинать темы
Вы можете отвечать на сообщения
Вы не можете редактировать свои сообщения
Вы не можете удалять свои сообщения
Вы не можете голосовать в опросах
Вы не можете прикреплять файлы к сообщениям
Вы можете скачивать файлы