Пьяница, курильщик и лихач / Boire, fumer et conduire vite (Марион Сарро / Marion Sarraut) [2011, Франция, сатирическая комедия, телеспектакль, SATRip] Theatre Bataclan a Paris Original (Fre) + Sub (rus hard)


 

[Цитировать]

Пьяница, курильщик и лихач / Boire, fumer et conduire vite Название театра Theatre Bataclan a Paris.
Год выпуска: 2011.
Страна: Франция .
Жанр: сатирическая комедия, телеспектакль.
Продолжительность: 01:32:56.
Перевод: субтитры (перевод К. Семенюк).
Cубтитры: русские hardsub (Eclair Group).
Оригинальная аудио дорожка: французская.
Режиссер: Марион Сарро / Marion Sarraut.
В ролях: Филипп Лелюш, Давид Брекур, Кристиан Вадим, Ванесса Демуи.
Описание:
По одноименной пьесе Филиппа Лелюша.
Идея пьесы возникла у Филиппа Лелюша от услышанной невзначай песенки в исполнении комика Дидье Бурдона, высмеивающей растущие подобно снежному кому запреты французского правительства, ограничивающие свободу личности.
Вечером накануне Нового года трое мужчин - Симон, Грег и Марк - оказываются задержанными в парижском полицейском участке: один - потому что он превысил скорость, второй – слишком много выпил, третий – курил в запрещенном месте в аэропорту. Они делятся перипетиями своей нелегкой доли, пока не появляется назначенная судом женщина-адвокат Мадлен, которая собирается не столько вызволить их на свободу до боя новогодних часов, сколько показать им глупость, совершенных ими проступков, с чем они, конечно же, совершенно не согласны...

Дополнительная информация:
Выпущено: Theatre Bataclan a Pari, TV5MONDE EURROPE.
Автор пьесы: Филипп Лелюш.
Релиз

Качество: SATRip
Формат: AVI
Видео: 720x400 (1.80:1), 25 fps, XviD build 50 ~1963 kbps avg, 0.27 bit/pixel
Аудио: 48 kHz, MPEG Layer 3, 2 ch, ~128.00 kbps avg

Отчет MediaInfo

Общее
Полное имя : P'yanica.kuril'wik.i.lihach_Teatr.Bataklan.2014.XviD.SATRip.fenixclub.avi
Format : AVI
Format/Info : Audio Video Interleave
File size : 1.36 GiB
Duration : 1h 32mn
Overall bit rate : 2 101 Kbps
Video
ID : 0
Format : MPEG-4 Visual
Format profile : Advanced Simple@L5
Format settings, BVOP : 2
Format settings, QPel : No
Format settings, GMC : No warppoints
Format settings, Matrix : Default (H.263)
Codec ID : XVID
Codec ID/Hint : XviD
Duration : 1h 32mn
Bit rate : 1 964 Kbps
Width : 720 pixels
Height : 400 pixels
Display aspect ratio : 16:9
Frame rate : 25.000 fps
Color space : YUV
Chroma subsampling : 4:2:0
Bit depth : 8 bits
Scan type : Progressive
Compression mode : Lossy
Bits/(Pixel*Frame) : 0.273
Stream size : 1.27 GiB (93%)
Writing library : XviD 1.2.1 (UTC 2008-12-04)
Audio
ID : 1
Format : MPEG Audio
Format version : Version 1
Format profile : Layer 3
Mode : Joint stereo
Mode extension : MS Stereo
Codec ID : 55
Codec ID/Hint : MP3
Duration : 1h 32mn
Bit rate mode : Constant
Bit rate : 128 Kbps
Channel(s) : 2 channels
Sampling rate : 48.0 KHz
Compression mode : Lossy
Stream size : 85.1 MiB (6%)
Alignment : Split accross interleaves
Interleave, duration : 40 ms (1.00 video frame)
Interleave, preload duratio : 500 ms.

Скриншоты

Альтернативный хост




Показать сообщения:    

Текущее время: 05-Дек 05:32

Часовой пояс: UTC + 3


Вы не можете начинать темы
Вы не можете отвечать на сообщения
Вы не можете редактировать свои сообщения
Вы не можете удалять свои сообщения
Вы не можете голосовать в опросах
Вы не можете прикреплять файлы к сообщениям
Вы не можете скачивать файлы