История золотой гейши / Tales Of A Golden Geisha / A-ge-man / Ageman (Дзюдзо Итами / Juzo Itami) [1990, Япония, драма, комедия, BDRip 720p] Sub Rus, Eng, Jap + Original Jap


 

[Цитировать]

История золотой гейши / Tales Of A Golden Geisha / A-ge-man-Страна: Япония
Жанр: драма, комедия
Год выпуска: 1990
Продолжительность: 01:58:33-Перевод: Субтитры
Cубтитры: русские (Severnyj), английские, японские
Оригинальная аудиодорожка: японский-Режиссер: Дзюдзо Итами / Juzo Itami-В ролях: Нобухико Миямото, Масахико Цугава, Хироши Окочи, Рюноскэ Канэда, Ацуко Итиномия, Кин Сугаи, Казуэ Мита, Мицуко Исий, Ерико Доугучи, Маико Минами-Описание:
Девушке Найоко с момента вступления во взрослую жизнь было предначертано судьбой стать живым талисманом - те, кто с ней жил, имел удачную судьбу. Священник, ее первый мужчина, за три года сумел высоко подняться в иерархии, затем бизнесмен, потом политик. Всем своим мужчинам она приносила удачу. Тех же, кто ссорился с ней, ждали неприятности.-Релиз группы: -Сэмпл: Скачать-Тип релиза: BDRip 720p
Контейнер: MKV-Видео: 962x720 (4:3); 8 150 Kbps; 23.976 fps; 0.491 bpp
Аудио: Japanese; AC3; 48.0 KHz; 2ch; 640 Kbps
Формат субтитров: softsub (SRT)

MediaInfo

Format : Matroska
Format version : Version 4 / Version 2
File size : 7.36 GiB
Duration : 1h 58mn
Overall bit rate : 8 882 Kbps
Encoded date : UTC 2015-11-16 17:31:05
Writing application : mkvmerge v8.3.0 ('Over the Horizon') 64bit
Writing library : libebml v1.3.1 + libmatroska v1.4.2
DURATION : 01:54:16.585000000
NUMBER_OF_FRAMES : 698
NUMBER_OF_BYTES : 50742
_STATISTICS_WRITING_APP : mkvmerge v8.3.0 ('Over the Horizon') 64bit
_STATISTICS_WRITING_DATE_UT : 2015-11-16 17:31:05
_STATISTICS_TAGS : BPS DURATION NUMBER_OF_FRAMES NUMBER_OF_BYTES
Video
ID : 1
Format : AVC
Format/Info : Advanced Video Codec
Format profile : High@L4.1
Format settings, CABAC : Yes
Format settings, ReFrames : 11 frames
Codec ID : V_MPEG4/ISO/AVC
Duration : 1h 58mn
Bit rate : 8 150 Kbps
Width : 962 pixels
Height : 720 pixels
Display aspect ratio : 4:3
Frame rate mode : Constant
Frame rate : 23.976 fps
Color space : YUV
Chroma subsampling : 4:2:0
Bit depth : 8 bits
Scan type : Progressive
Bits/(Pixel*Frame) : 0.491
Stream size : 6.68 GiB (91%)
Title : 720p @ 8150kbps
Writing library : x264 core 146 r2538 121396c
Encoding settings : cabac=1 / ref=11 / deblock=1:-3:-3 / analyse=0x3:0x133 / me=umh / subme=10 / psy=1 / psy_rd=1.00:0.00 / mixed_ref=1 / me_range=32 / chroma_me=1 / trellis=2 / 8x8dct=1 / cqm=0 / deadzone=21,11 / fast_pskip=0 / chroma_qp_offset=-2 / threads=6 / lookahead_threads=1 / sliced_threads=0 / nr=0 / decimate=0 / interlaced=0 / bluray_compat=0 / constrained_intra=0 / bframes=8 / b_pyramid=2 / b_adapt=2 / b_bias=0 / direct=3 / weightb=1 / open_gop=0 / weightp=2 / keyint=250 / keyint_min=24 / scenecut=40 / intra_refresh=0 / rc_lookahead=60 / rc=2pass / mbtree=1 / bitrate=8150 / ratetol=1.0 / qcomp=0.65 / qpmin=0 / qpmax=69 / qpstep=4 / cplxblur=20.0 / qblur=0.5 / vbv_maxrate=38000 / vbv_bufsize=30000 / nal_hrd=none / filler=0 / ip_ratio=1.40 / aq=1:0.55
Language : English
Default : Yes
Forced : No
DURATION : 01:58:33.106000000
NUMBER_OF_FRAMES : 170544
NUMBER_OF_BYTES : 7246748567
_STATISTICS_WRITING_APP : mkvmerge v8.3.0 ('Over the Horizon') 64bit
_STATISTICS_WRITING_DATE_UT : 2015-11-16 17:31:05
_STATISTICS_TAGS : BPS DURATION NUMBER_OF_FRAMES NUMBER_OF_BYTES
Audio
ID : 2
Format : AC-3
Format/Info : Audio Coding 3
Mode extension : CM (complete main)
Format settings, Endianness : Big
Codec ID : A_AC3
Duration : 1h 58mn
Bit rate mode : Constant
Bit rate : 640 Kbps
Channel(s) : 2 channels
Channel positions : Front: L R
Sampling rate : 48.0 KHz
Compression mode : Lossy
Stream size : 543 MiB (7%)
Language : Japanese
Default : Yes
Forced : No
Text #1
ID : 3
Format : UTF-8
Codec ID : S_TEXT/UTF8
Codec ID/Info : UTF-8 Plain Text
Language : Russian
Default : Yes
Forced : No
Text #2
ID : 4
Format : UTF-8
Codec ID : S_TEXT/UTF8
Codec ID/Info : UTF-8 Plain Text
Title : English
Language : English
Default : No
Forced : No
Text #3
ID : 5
Format : PGS
Muxing mode : zlib
Codec ID : S_HDMV/PGS
Codec ID/Info : Picture based subtitle format used on BDs/HD-DVDs
Title : Japanese
Language : Japanese
Default : No
Forced : No
Menu
00:00:00.000 : en:Chapter 1
00:14:01.007 : en:Chapter 2
00:18:48.294 : en:Chapter 3
00:22:41.944 : en:Chapter 4
00:25:51.383 : en:Chapter 5
00:29:25.263 : en:Chapter 6
00:35:15.363 : en:Chapter 7
00:46:58.524 : en:Chapter 8
00:55:04.968 : en:Chapter 9
01:06:09.048 : en:Chapter 10
01:08:06.791 : en:Chapter 11
01:12:01.776 : en:Chapter 12
01:14:53.155 : en:Chapter 13
01:17:58.382 : en:Chapter 14
01:21:49.571 : en:Chapter 15
01:27:14.312 : en:Chapter 16
01:39:58.326 : en:Chapter 17
01:43:59.483 : en:Chapter 18
01:49:41.408 : en:Chapter 19
01:54:01.334 : en:Chapter 20

Скриншоты




Показать сообщения:    

Текущее время: 08-Дек 17:21

Часовой пояс: UTC + 3


Вы не можете начинать темы
Вы не можете отвечать на сообщения
Вы не можете редактировать свои сообщения
Вы не можете удалять свои сообщения
Вы не можете голосовать в опросах
Вы не можете прикреплять файлы к сообщениям
Вы не можете скачивать файлы