Покажите язык, мадемуазель / Tirez la langue, mademoiselle / Miss and the Doctors (Аксель Ропер / Axelle Ropert) [2013, Франция, драма, комедия, HDTV 1080i] MVO (Первый канал)


 

[Цитировать]

Покажите язык, мадемуазель | Tirez la langue, mademoiselle | Miss and the Doctors- Страна: Франция
Жанр: Драма, комедия
Год выпуска: 2013
Продолжительность: 01:32:57-Перевод: Профессиональный (многоголосый закадровый) - Первый канал
Субтитры: нет
Оригинальная аудиодорожка: нет-Режиссер: Аксель Ропер | Axelle Ropert
В ролях: Седрик Кан, Лоран Стокер, Луиз Бургуан, Паула Денис, Серж Бозон, Жиль Гастон-Дрейфус, Камиль Кэоль- -Описание: Братья Борис и Дмитрий Пизарник работают вместе врачами в Китайском квартале Парижа, посвящая все свое время своим пациентам. Однажды ночью им приходится оказать помощь маленькой девочке, больной диабетом, которую Жюдит, ее мама, воспитывает сама. Оба брата влюбляются в Жюдит. Мир полностью переворачивается для них…-Семпл-Тип релиза: HDTV 1080i
Контейнер: TS
Видео кодек: AVC
Аудио кодек: MP2
Видео: AVC | 1920x1080 [16:9] | 25 fps | 6707 Kbps
Аудио: Русский | MP2 | 2 ch | 48.0 KHz | 192 kbps-

MediaInfo

GeneralID : 1 (0x1)Complete name : F:\Video\Tirez la langue, mademoiselle [Axelle Ropert] [2013] [HDTV].tsFormat : MPEG-TSFile size : 4.71 GiBDuration : 1h 32mnOverall bit rate mode : VariableOverall bit rate : 7 259 Kbps
VideoID : 67 (0x43)Menu ID : 1 (0x1)Format : AVCFormat/Info : Advanced Video CodecFormat profile : Main@L4Format settings, CABAC : YesFormat settings, ReFrames : 4 framesFormat settings, GOP : M=4, N=28Codec ID : 27Duration : 1h 32mnBit rate : 6 707 KbpsWidth : 1 920 pixelsHeight : 1 080 pixelsDisplay aspect ratio : 16:9Frame rate : 25.000 fpsStandard : ComponentColor space : YUVChroma subsampling : 4:2:0Bit depth : 8 bitsScan type : InterlacedScan order : Top Field FirstBits/(Pixel*Frame) : 0.129Stream size : 4.35 GiB (92%)Color range : LimitedColor primaries : BT.709Transfer characteristics : BT.709Matrix coefficients : BT.709
AudioID : 68 (0x44)Menu ID : 1 (0x1)Format : MPEG AudioFormat version : Version 1Format profile : Layer 2Codec ID : 3Duration : 1h 32mnBit rate mode : ConstantBit rate : 192 KbpsChannel(s) : 2 channelsSampling rate : 48.0 KHzCompression mode : LossyDelay relative to video : -120msStream size : 128 MiB (3%)Language : Russian

Скриншоты




Показать сообщения:    

Текущее время: 08-Дек 09:06

Часовой пояс: UTC + 3


Вы не можете начинать темы
Вы не можете отвечать на сообщения
Вы не можете редактировать свои сообщения
Вы не можете удалять свои сообщения
Вы не можете голосовать в опросах
Вы не можете прикреплять файлы к сообщениям
Вы не можете скачивать файлы