Жить / Ikiru (Акира Куросава / Akira Kurosawa) [1952, Япония, драма, BDRemux 1080p] [Criterion Collection] 3x MVO + Sub (Rus, Eng) + Original Jap


 

[Цитировать]

Жить / Ikiru
Страна: Япония
Жанр: драма
Год выпуска: 1952
Продолжительность: 02:23:08
Перевод: Профессиональный (многоголосый закадровый) DVD Магия
Перевод: Профессиональный (многоголосый закадровый) SomeWax
Перевод: Профессиональный (многоголосый закадровый) Светла
Cубтитры: русские, английские
Оригинальная аудиодорожка: японский-Режиссер: Акира Куросава / Akira Kurosawa
В ролях: Такаси Симура, Минору Чиаки, Бокудзен Хидари, Каматари Фудзивара, Нобуо Канеко, Нобуо Накамура, Ацуси Ватанабе, Исао Кимура, Масао Шимицу, Юносукэ Ито, Кин Сугаи, Эйко Мийоши, Синити Химори
Описание: «Жить» - это история «простого токийского бюрократа» Кендзи Ватанабэ, внезапно узнавшего, что он неизлечимо болен. Ватанабэ всю жизнь проработал на нелюбимой скучной работе, не взяв ни одного отгула, не помог ни одному человеку, не потратил деньги, которые зарабатывал и копил, он даже не покупал саке, в общем-то и не жил. Узнав, что ему осталось всего несколько месяцев, он решает изменить свою жизнь, успеть за оставшееся время то, что не успел за многие годы. «Подумать только, целых 30 лет я не замечал закат, а теперь у меня нет на это времени» - говорит в конце фильма главный герой.
IMDb || КиноПоиск-Тип релиза: BDRemux 1080p
Контейнер: MKV
Видео: MPEG-4 AVC Video, 1920x1080 at 23.976 fps, 25000 kbps
Аудио#1: Russian: 48 kHz, AC3, 2.0 ch, 192 kbps
Аудио#2: Russian: 48 kHz, AC3, 2.0 ch, 192 kbps
Аудио#3: Russian: 48 kHz, AC3, 2.0 ch, 192 kbps
Аудио#4: Japanese: 48 kHz, FLAC, 1.0 ch, 490 kbps
Аудио#5: English: 48 kHz, AC3, 1.0 ch, 192 kbps |комментарии Стивена Принса, историка кино
Формат субтитров: softsub (SRT)
Сэмпл

MediaInfo

General
Unique ID : 208930710362225787471495617004579538076 (0x9D2E9754E085222E9C1366DA9E77449C)
Complete name : Ikiru.1952.Criterion.BDRemux.rutracker.mkv
Format : Matroska
Format version : Version 2
File size : 26.2 GiB
Duration : 2h 23mn
Overall bit rate mode : Variable
Overall bit rate : 26.3 Mbps
Movie name : Release for RuTracker
Writing application : mkvmerge v5.0.1 ('Es ist Sommer') built on Nov 6 2011 16:23:40
Writing library : libebml v1.2.2 + libmatroska v1.3.0
Video
ID : 1
Format : AVC
Format/Info : Advanced Video Codec
Format profile : High@L4.1
Format settings, CABAC : Yes
Format settings, ReFrames : 4 frames
Codec ID : V_MPEG4/ISO/AVC
Duration : 2h 23mn
Bit rate mode : Variable
Maximum bit rate : 37.0 Mbps
Width : 1 920 pixels
Height : 1 080 pixels
Display aspect ratio : 16:9
Frame rate mode : Constant
Frame rate : 23.976 fps
Color space : YUV
Chroma subsampling : 4:2:0
Bit depth : 8 bits
Scan type : Progressive
Title : Ikiru.1952.Criterion.BDRemux.rutracker
Language : Japanese
Default : Yes
Forced : No
Audio #1
ID : 2
Format : AC-3
Format/Info : Audio Coding 3
Mode extension : CM (complete main)
Format settings, Endianness : Big
Codec ID : A_AC3
Duration : 2h 23mn
Bit rate mode : Constant
Bit rate : 192 Kbps
Channel(s) : 2 channels
Channel positions : Front: L R
Sampling rate : 48.0 KHz
Bit depth : 16 bits
Compression mode : Lossy
Stream size : 197 MiB (1%)
Title : DVD Магия
Language : Russian
Default : Yes
Forced : No
Audio #2
ID : 3
Format : AC-3
Format/Info : Audio Coding 3
Mode extension : CM (complete main)
Format settings, Endianness : Big
Codec ID : A_AC3
Duration : 2h 23mn
Bit rate mode : Constant
Bit rate : 192 Kbps
Channel(s) : 2 channels
Channel positions : Front: L R
Sampling rate : 48.0 KHz
Bit depth : 16 bits
Compression mode : Lossy
Stream size : 197 MiB (1%)
Title : SomeWax
Language : Russian
Default : No
Forced : No
Audio #3
ID : 4
Format : AC-3
Format/Info : Audio Coding 3
Mode extension : CM (complete main)
Format settings, Endianness : Big
Codec ID : A_AC3
Duration : 2h 23mn
Bit rate mode : Constant
Bit rate : 192 Kbps
Channel(s) : 2 channels
Channel positions : Front: L R
Sampling rate : 48.0 KHz
Bit depth : 16 bits
Compression mode : Lossy
Stream size : 197 MiB (1%)
Title : Светла
Language : Russian
Default : No
Forced : No
Audio #4
ID : 5
Format : FLAC
Format/Info : Free Lossless Audio Codec
Codec ID : A_FLAC
Duration : 2h 23mn
Bit rate mode : Variable
Channel(s) : 1 channel
Sampling rate : 48.0 KHz
Bit depth : 24 bits
Writing library : libFLAC 1.2.1 (UTC 2007-09-17)
Language : Japanese
Default : No
Forced : No
Audio #5
ID : 6
Format : AC-3
Format/Info : Audio Coding 3
Mode extension : CM (complete main)
Format settings, Endianness : Big
Codec ID : A_AC3
Duration : 2h 23mn
Bit rate mode : Constant
Bit rate : 192 Kbps
Channel(s) : 1 channel
Channel positions : Front: C
Sampling rate : 48.0 KHz
Bit depth : 16 bits
Compression mode : Lossy
Stream size : 197 MiB (1%)
Title : комментарии Стивена Принса, историка кино
Language : English
Default : No
Forced : No
Text #1
ID : 7
Format : UTF-8
Codec ID : S_TEXT/UTF8
Codec ID/Info : UTF-8 Plain Text
Language : Russian
Default : No
Forced : No
Text #2
ID : 8
Format : UTF-8
Codec ID : S_TEXT/UTF8
Codec ID/Info : UTF-8 Plain Text
Language : English
Default : No
Forced : No
Menu
00:00:00.000 : en:Credits
00:02:29.357 : en:The main character
00:06:40.108 : en:Runaround
00:10:32.256 : en:An unusual absence
00:12:02.930 : en:Amateur prognosis
00:15:14.747 : en:Professional prognosis
00:18:23.268 : en:Home
00:22:28.555 : en:Memories
00:30:29.661 : en:Whereabouts unknown
00:33:13.241 : en:A sympathetic ear
00:42:57.074 : en:Night on the town
00:57:50.091 : en:Thirty years for what?
01:07:20.411 : en:An afternoon together
01:11:17.940 : en:Unwrapping the mummy
01:16:05.143 : en:Father and son confrontation
01:19:38.732 : en:Last date with Toyo
01:30:04.565 : en:A new purpose
01:32:18.783 : en:Questioning Watanabe's death
01:36:34.872 : en:A matter of credit
01:40:56.967 : en:Respects paid
01:43:16.440 : en:Making sense of Watanabe
02:12:57.010 : en:The policeman's story
02:20:04.646 : en:Business as usual
02:21:29.105 : en:Watanabe's legacy

Скриншоты

Toho vs Criterion



Показать сообщения:    

Текущее время: 08-Дек 01:18

Часовой пояс: UTC + 3


Вы не можете начинать темы
Вы не можете отвечать на сообщения
Вы не можете редактировать свои сообщения
Вы не можете удалять свои сообщения
Вы не можете голосовать в опросах
Вы не можете прикреплять файлы к сообщениям
Вы не можете скачивать файлы