Тени и туман / Shadows and Fog (Вуди Аллен / Woody Allen) [1991, США, комедия, триллер, детектив, драма, BDRip 1080p] DVO (MGM) + AVO (Марченко) + Sub Rus, Eng + Original Eng


 

[Цитировать]

Тени и туман / Shadows and Fog
Страна: США
Жанр: Комедия, Триллер, Детектив, Драма
Год выпуска: 1991
Продолжительность: 01:25:39-Перевод 1: Профессиональный (двухголосый закадровый) MGM
Перевод 2: Авторский (одноголосый закадровый) Марченко
Cубтитры: русские, английские
Оригинальная аудиодорожка: английский-Режиссер: Вуди Аллен / Woody Allen
В ролях: Вуди Аллен, Миа Фэрроу, Джон Малкович, Мадонна, Дэвид Огден Стирс, Джон Кьюсак, Джоди Фостер, Майкл Кирби, Уильям Х. Мэйси, Джон Си Райли, Джеймс Ребхорн, Виктор Арго, Даниэль вон Барген, Камилла Савиола, Тим Лумис, Кэти Дирлам, Деннис Вестунис, Дональд Плизенс-Описание: Город поглощен страхом – серийный убийца до сих пор не пойман. Мелкий служащий присоединяется к поискам преступника, и, в конце концов, сам оказывается в роли преследуемого. Везде господствует туман и мгла. Аллен использует поворотную камеру и частую смену кадров, заставляя зрителя внимательнее следить за происходящим. Музыка Курта Уилла усиливает чувство тревоги. Фильм превосходный, хотя как комедия он слабоват. Звездный состав картины не спасает положения. Как всегда хорош Джон Малкович. Многими любимая Мадонна так же сыграла в картине небольшую роль артистки цирка. На нее произвел сильное впечатление режиссерский стиль Аллена. "Я никогда не научусь терпению, - сказала она. - Но, наблюдая за Вуди, я поняла, как работают настоящие мастера. Он умеет в истинно мягкой манере заставить актера проявить все свои способности. Он не деспот, и это для меня поучительный пример”.
-Сэмпл: https://yadi.sk/i/7ci_v4oqkX2eC-Тип релиза: BDRip 1080p
Контейнер: MKV-Видео: AVC, 1920x1040 (1.85:1), 13836 kbps, 23.976 fps
Аудио 1: AC-3 / 2.0 ch / 48 kHz / 16 bit / 192 kbps - DVO [MGM].
Аудио 2: AC-3 / 2.0 ch / 48 kHz / 16 bit / 192 kbps - VO [Marchenko].
Аудио 3: DTS / 1.0 ch / 48 kHz / 24 bit / 768 kbps - Original.
Формат субтитров: softsub (SRT)

MediaInfo

D:\Sem\Desktop\Фильмы\Тени и туман. BDRip. 1080p..mkv
General
Unique ID : 231836508863296853916022359352328937327 (0xAE6A1663EC415247B90C5FDB61E95F6F)
Complete name : D:\Sem\Desktop\Фильмы\Тени и туман. BDRip. 1080p..mkv
Format : Matroska
Format version : Version 4 / Version 2
File size : 8.97 GiB
Duration : 1h 25mn
Overall bit rate : 15.0 Mbps
Encoded date : UTC 2015-11-17 12:15:30
Writing application : mkvmerge v6.6.0 ('The Edge Of The In Between') built on Dec 1 2013 17:55:00
Writing library : libebml v1.3.0 + libmatroska v1.4.1
Video #1
ID : 1
Format : AVC
Format/Info : Advanced Video Codec
Format profile : High@L4.1
Format settings, CABAC : Yes
Format settings, ReFrames : 4 frames
Codec ID : V_MPEG4/ISO/AVC
Duration : 1h 25mn
Bit rate : 13.8 Mbps
Width : 1 920 pixels
Height : 1 040 pixels
Display aspect ratio : 1.85:1
Frame rate : 23.976 fps
Color space : YUV
Chroma subsampling : 4:2:0
Bit depth : 8 bits
Scan type : Progressive
Bits/(Pixel*Frame) : 0.289
Stream size : 8.11 GiB (90%)
Writing library : x264 core 148 r2638 7599210
Encoding settings : cabac=1 / ref=4 / deblock=1:-3:-3 / analyse=0x3:0x113 / me=umh / subme=8 / psy=1 / psy_rd=1.10:0.00 / mixed_ref=1 / me_range=24 / chroma_me=1 / trellis=1 / 8x8dct=1 / cqm=0 / deadzone=21,11 / fast_pskip=0 / chroma_qp_offset=-2 / threads=24 / lookahead_threads=4 / sliced_threads=0 / nr=0 / decimate=1 / interlaced=0 / bluray_compat=0 / constrained_intra=0 / bframes=3 / b_pyramid=2 / b_adapt=2 / b_bias=0 / direct=3 / weightb=1 / open_gop=0 / weightp=2 / keyint=240 / keyint_min=24 / scenecut=40 / intra_refresh=0 / rc_lookahead=50 / rc=2pass / mbtree=1 / bitrate=13845 / ratetol=1.0 / qcomp=0.60 / qpmin=0 / qpmax=69 / qpstep=4 / cplxblur=20.0 / qblur=0.5 / ip_ratio=1.40 / aq=3:0.80
Language : English
Default : Yes
Forced : No
Audio #2
ID : 2
Format : AC-3
Format/Info : Audio Coding 3
Mode extension : CM (complete main)
Format settings, Endianness : Big
Codec ID : A_AC3
Duration : 1h 25mn
Bit rate mode : Constant
Bit rate : 192 Kbps
Channel(s) : 2 channels
Channel positions : Front: L R
Sampling rate : 48.0 KHz
Bit depth : 16 bits
Compression mode : Lossy
Stream size : 118 MiB (1%)
Title : AC-3 / 2.0 ch / 48 kHz / 16 bit / 192 kbps - DVO [MGM].
Language : Russian
Default : Yes
Forced : No
Audio #3
ID : 3
Format : AC-3
Format/Info : Audio Coding 3
Mode extension : CM (complete main)
Format settings, Endianness : Big
Codec ID : A_AC3
Duration : 1h 25mn
Bit rate mode : Constant
Bit rate : 192 Kbps
Channel(s) : 2 channels
Channel positions : Front: L R
Sampling rate : 48.0 KHz
Bit depth : 16 bits
Compression mode : Lossy
Stream size : 118 MiB (1%)
Title : AC-3 / 2.0 ch / 48 kHz / 16 bit / 192 kbps - AVO [Marchenko].
Language : Russian
Default : No
Forced : No
Audio #4
ID : 4
Format : DTS
Format/Info : Digital Theater Systems
Codec ID : A_DTS
Duration : 1h 25mn
Bit rate mode : Constant
Bit rate : 755 Kbps
Channel(s) : 1 channel
Channel positions : Front: C
Sampling rate : 48.0 KHz
Bit depth : 24 bits
Compression mode : Lossy
Stream size : 462 MiB (5%)
Title : DTS / 1.0 ch / 48 kHz / 24 bit / 768 kbps - Original.
Language : English
Default : No
Forced : No
Text #5
ID : 5
Format : UTF-8
Codec ID : S_TEXT/UTF8
Codec ID/Info : UTF-8 Plain Text
Language : Russian
Default : No
Forced : No
Text #6
ID : 6
Format : UTF-8
Codec ID : S_TEXT/UTF8
Codec ID/Info : UTF-8 Plain Text
Language : English
Default : No
Forced : No
Text #7
ID : 7
Format : UTF-8
Codec ID : S_TEXT/UTF8
Codec ID/Info : UTF-8 Plain Text
Title : SDH
Language : English
Default : No
Forced : No

Скриншоты




Показать сообщения:    

Текущее время: 05-Дек 17:36

Часовой пояс: UTC + 3


Вы не можете начинать темы
Вы не можете отвечать на сообщения
Вы не можете редактировать свои сообщения
Вы не можете удалять свои сообщения
Вы не можете голосовать в опросах
Вы не можете прикреплять файлы к сообщениям
Вы не можете скачивать файлы