Песни со второго этажа / Sånger från andra våningen / Songs from the Second Floor (Рой Андерссон / Roy Andersson) [2000, Швеция, Норвегия, Дания, драма, комедия, BDRip 720p] DVO (Селена Интернешнл) + Original (Swe) + Sub (Rus, Eng)


 

[Цитировать]

Песни со второго этажа / Sånger från andra våningen / Songs from the Second Floor
«Сюр наступает!»
- Страна: Швеция, Норвегия, Дания
Жанр: драма, комедия
Год выпуска: 2000
Продолжительность: 01:38:52-Перевод: Профессиональный (двухголосый закадровый) - Селена Интернешнл
Оригинальная аудиодорожка: Swedish
Cубтитры: Русские (полные), English (full)
Навигация по главам: присутствует - 12 глав-Режиссер: Рой Андерссон / Roy Andersson
В ролях: Ларс Норд, Стефан Ларссон, Бенгт С. Карлссон, Торбьёрн Фальстрём, Стэн Андерссон, Роландо Нуньес, Лусио Вусина, Пер Йёрнелиус, Питер Рот, Клас-Гёста Олссон-Описание: Однажды вечером в Стокгольме начинает происходить ряд невероятно странных, не связанных друг с другом событий. Немолодой клерк сходит с ума после безжалостного увольнения с работы… На улице жестоко избивают заблудившегося эмигранта… Фокусник совершает роковую ошибку прямо во время своего представления, по-настоящему распилив несчастного добровольца из публики… Растерянного человека, в отчаянии спалившего дотла свой мебельный магазин, преследует призрак удавленника… Огромная толпа важных и мрачных взрослых людей приносит в жертву невинную девочку… В городе немыслимые пробки; по улицам чинно ходят хорошо одетые чиновники, хлещущие себя плетьми… Похоже, пришел тот час, которого все так давно боялись…-
Download sample-Качество видео: BDRip 720p | исх. BDRemux 1080p - thx: sappyyy
Формат: MKV-Видео: 1 204x720 (5:3), 24.000 fps, H.264 ~9 000 kbps avg, 0.422 bit/pixel
Аудио №1: 48.0 kHz, AC3 Dolby Digital, 2/0 (L,R), ~192 kbps | Профессиональный (двухголосый закадровый) - Селена Интернешнл
Аудио №2: 48.0 kHz, AC3 Dolby Digital, 3/2 (L,C,R,l,r) + LFE ch, ~640 kbps | Swedish
Субтитры №1: Русские (полные) | *.srt
Субтитры №2: English (full) | *.srt-

MediaInfo

General
Unique ID : 217349716820351828370507070314500592948 (0xA3840865C455BA5C8041AEAB8EFC1534)
Complete name : D:\Фильмы\Рипы\Songs from the Second Floor.2000.BDRip 720p.eFK tRuAVC.mkv
Format : Matroska
Format version : Version 4 / Version 2
File size : 6.78 GiB
Duration : 1h 38mn
Overall bit rate : 9 812 Kbps
Movie name : Песни со второго этажа / Sånger från andra våningen / Songs from the Second Floor (2000) - Release for rutracker
Encoded date : UTC 2015-11-17 10:17:57
Writing application : mkvmerge v7.6.0 ('Garden of Dreams') 64bit built on Feb 8 2015 13:04:34
Writing library : libebml v1.3.1 + libmatroska v1.4.2
Attachements : cover.jpg
DURATION : 01:38:48.480000000
NUMBER_OF_FRAMES : 185265
NUMBER_OF_BYTES : 142283520
_STATISTICS_WRITING_APP : mkvmerge v7.6.0 ('Garden of Dreams') 64bit built on Feb 8 2015 13:04:34
_STATISTICS_WRITING_DATE_UT : 2015-11-17 10:17:57
_STATISTICS_TAGS : BPS DURATION NUMBER_OF_FRAMES NUMBER_OF_BYTES
Video
ID : 1
Format : AVC
Format/Info : Advanced Video Codec
Format profile : High@L4.1
Format settings, CABAC : Yes
Format settings, ReFrames : 8 frames
Codec ID : V_MPEG4/ISO/AVC
Duration : 1h 38mn
Bit rate : 8 785 Kbps
Width : 1 204 pixels
Height : 720 pixels
Display aspect ratio : 5:3
Frame rate mode : Constant
Frame rate : 24.000 fps
Color space : YUV
Chroma subsampling : 4:2:0
Bit depth : 8 bits
Scan type : Progressive
Bits/(Pixel*Frame) : 0.422
Stream size : 6.07 GiB (90%)
Title : eFK tRuAVC
Writing library : x264 core 148 r2638kMod 7599210
Encoding settings : cabac=1 / ref=8 / deblock=1:-3:-3 / analyse=0x3:0x113 / me=umh / subme=11 / psy=1 / fade_compensate=0.00 / psy_rd=1.05:0.05 / mixed_ref=1 / me_range=48 / chroma_me=1 / trellis=2 / 8x8dct=1 / cqm=0 / deadzone=21,11 / fast_pskip=0 / chroma_qp_offset=-3 / threads=12 / lookahead_threads=3 / sliced_threads=0 / nr=0 / decimate=1 / interlaced=0 / bluray_compat=0 / constrained_intra=0 / fgo=0 / bframes=16 / b_pyramid=2 / b_adapt=2 / b_bias=0 / direct=3 / weightb=1 / open_gop=0 / weightp=2 / keyint=250 / keyint_min=24 / scenecut=40 / intra_refresh=0 / rc_lookahead=60 / rc=crf / mbtree=0 / crf=17.8000 / qcomp=0.65 / qpmin=0 / qpmax=69 / qpstep=4 / vbv_maxrate=62500 / vbv_bufsize=78125 / crf_max=0.0 / nal_hrd=none / filler=0 / ip_ratio=1.40 / pb_ratio=1.30 / aq=1:0.78
Language : Swedish
Default : Yes
Forced : No
Color range : Limited
Color primaries : BT.709
Transfer characteristics : BT.709
Matrix coefficients : BT.709
DURATION : 01:38:52.709000000
NUMBER_OF_FRAMES : 142385
NUMBER_OF_BYTES : 6657727486
_STATISTICS_WRITING_APP : mkvmerge v7.6.0 ('Garden of Dreams') 64bit built on Feb 8 2015 13:04:34
_STATISTICS_WRITING_DATE_UT : 2015-11-17 10:17:57
_STATISTICS_TAGS : BPS DURATION NUMBER_OF_FRAMES NUMBER_OF_BYTES
Audio #1
ID : 2
Format : AC-3
Format/Info : Audio Coding 3
Mode extension : CM (complete main)
Format settings, Endianness : Big
Codec ID : A_AC3
Duration : 1h 38mn
Bit rate mode : Constant
Bit rate : 192 Kbps
Channel(s) : 2 channels
Channel positions : Front: L R
Sampling rate : 48.0 KHz
Compression mode : Lossy
Stream size : 136 MiB (2%)
Title : DVO (Селена Интернешнл)
Language : Russian
Default : Yes
Forced : No
Audio #2
ID : 3
Format : AC-3
Format/Info : Audio Coding 3
Mode extension : CM (complete main)
Format settings, Endianness : Big
Codec ID : A_AC3
Duration : 1h 38mn
Bit rate mode : Constant
Bit rate : 640 Kbps
Channel(s) : 6 channels
Channel positions : Front: L C R, Side: L R, LFE
Sampling rate : 48.0 KHz
Compression mode : Lossy
Stream size : 453 MiB (7%)
Language : Swedish
Default : No
Forced : No
Text #1
ID : 4
Format : UTF-8
Codec ID : S_TEXT/UTF8
Codec ID/Info : UTF-8 Plain Text
Title : полные
Language : Russian
Default : No
Forced : No
Text #2
ID : 5
Format : UTF-8
Codec ID : S_TEXT/UTF8
Codec ID/Info : UTF-8 Plain Text
Title : full
Language : English
Default : No
Forced : No
Menu
00:00:00.000 : en:00:00:00.000
00:08:50.958 : en:00:08:50.958
00:16:46.750 : en:00:16:46.750
00:26:34.792 : en:00:26:34.792
00:33:59.250 : en:00:33:59.250
00:43:53.208 : en:00:43:53.208
00:53:41.083 : en:00:53:41.083
01:02:47.167 : en:01:02:47.167
01:12:08.625 : en:01:12:08.625
01:20:30.542 : en:01:20:30.542
01:29:01.875 : en:01:29:01.875
01:35:33.833 : en:01:35:33.833

x264 log

x264 [info]: frame I:591 Avg QP:16.54 size:158335
x264 [info]: frame P:25207 Avg QP:18.02 size: 83473
x264 [info]: frame B:116587 Avg QP:20.07 size: 38255
x264 [info]: consecutive B-frames: 0.5% 0.3% 0.8% 7.5% 20.8% 56.3% 8.3% 3.9% 0.4% 0.1% 0.1% 0.1% 0.1% 0.1% 0.1% 0.1% 0.6%
x264 [info]: mb I I16..4: 4.6% 83.2% 12.2%
x264 [info]: mb P I16..4: 0.1% 19.8% 0.4% P16..4: 20.9% 33.3% 21.4% 0.0% 0.0% skip: 4.1%
x264 [info]: mb B I16..4: 0.0% 3.5% 0.0% B16..8: 32.6% 23.0% 7.2% direct:13.9% skip:19.6% L0:44.4% L1:34.8% BI:20.8%
x264 [info]: 8x8 transform intra:97.0% inter:52.1%
x264 [info]: direct mvs spatial:100.0% temporal:0.0%
x264 [info]: coded y,uvDC,uvAC intra: 98.3% 97.3% 92.5% inter: 53.9% 52.9% 34.3%
x264 [info]: i16 v,h,dc,p: 77% 7% 9% 6%
x264 [info]: i8 v,h,dc,ddl,ddr,vr,hd,vl,hu: 8% 7% 20% 10% 12% 11% 10% 10% 12%
x264 [info]: i4 v,h,dc,ddl,ddr,vr,hd,vl,hu: 11% 25% 8% 7% 11% 10% 10% 8% 11%
x264 [info]: i8c dc,h,v,p: 66% 10% 9% 15%
x264 [info]: Weighted P-Frames: Y:3.7% UV:0.8%
x264 [info]: ref P L0: 26.8% 8.6% 20.3% 9.8% 10.7% 8.2% 9.4% 6.0% 0.2% 0.0%
x264 [info]: ref B L0: 67.2% 13.1% 7.3% 4.8% 3.8% 2.5% 1.3%
x264 [info]: ref B L1: 93.5% 6.5%
x264 [info]: kb/s:8977.66
x264 [total]: encoded 142385 frames, 6.05 fps, 8977.66 kb/s, duration 6:32:33.48

Comparison

Source

Encode



Показать сообщения:    

Текущее время: 10-Дек 11:54

Часовой пояс: UTC + 3


Вы не можете начинать темы
Вы не можете отвечать на сообщения
Вы не можете редактировать свои сообщения
Вы не можете удалять свои сообщения
Вы не можете голосовать в опросах
Вы не можете прикреплять файлы к сообщениям
Вы не можете скачивать файлы