Двойник (Юрий Маляцкий) [1989 г., драма, экранизация, телеспектакль, WEB-DLRip]


 

[Цитировать]

Двойник (2 серии) Год выпуска: 1989.
Жанр: драма, экранизация, телеспектакль.
Продолжительность: 00:53:47 + 00:50:42 (01:44:29).
Режиссер: Юрий Маляцкий.
Действующие лица и исполнители:
Яков Петрович Голядкин - заслуженный артист РСФСР Владимир Особик,
Петрушка - Юрий Оськин,
Рутеншпиц - заслуженный артист РСФСР Геннадий Богачев,
Андрей Филиппович - заслуженный артист РСФСР Михаил Храбров,
Антон Антонович - заслуженный артист РСФСР Георгий Штиль,
Его превосходительство - Сергей Лосев,
Остафьев - заслуженный артист РСФСР Николай Иванов,
Писаренко - заслуженный артист РСФСР Юрий Затравкин,
Алексеич - Анатолий Худолеев,
Герасимыч - Валерий Караваев.
В эпизодах - артисты Ленинградских театров.
О спектакле:
Телеспектакль по по повести Фёдора Михайловича Достоевского "Двойник. Петербургская поэма".
Замысел повести и начало её написания относятся к 1845 году, когда Достоевский закончил работу над "Бедными людьми". Автору - двадцать четыре года. Окончательный вариант был закончен в 1866 году. Повесть во многом перекликается с произведениями Гофмана и Гоголя - образ мелкого чиновника, фантастичность сюжета, имена некоторых персонажей, подзаголовок "Петербургская поэма", отсылающий читателя к "Мёртвым душам" Гоголя.
Титулярный советник Яков Петрович Голядкин - человек добрый, простодушный и мягкий характером. Он "ходит не в маске, не интриган, действует открыто и идет прямою дорогою". Чувствуя себя человеком слабым и маленьким, он всячески пытается оправдать в себе эти качества и даже выдать их за добродетель. Однако неосознанные страхи и комплексы ущемленных амбиций проявляются в болезненной склонности видеть обиду в словах, взглядах, жестах. Ему кажется, что против него всюду составляются интриги, ведутся подкопы.
Отправившись на званый вечер, он с ужасом обнаруживает, что по непонятным причинам потерял расположение хозяев, которые, без каких-либо объяснений, отказываются его принять. Со всех сторон на него начинают сыпаться всевозможные намёки и недомолвки относительно его поведения, которые он никак не может растолковать, пока внезапно не обнаруживает причину - человека, как две капли воды похожего на него, с тем же именем и фамилией, поступившего на работу в его департамент. Двойник оказывается гнуснейшим типом, интриганом, подхалимом и пакостником, одним словом, полной противоположностью самому герою. По необъяснимой причине ему удаётся на каждом шагу компрометировать настоящего Якова Петровича, и вместе с тем, постепенно занять его место в кругу друзей, знакомых, на службе.

Дополнительная информация:
Страна: СССР .
Выпущено: Ленинградское телевидение.
Автор: Фёдор Михайлович Достоевский.
Оператор-постановщик: Сергей Дубровский.
Художник-постановщик: Татьяна Венецианова.
Музыка из произведений Альфреда Шнитке.
Релиз
Рип lesik689.

Качество видео:...WEB-DLRip
Формат:.................AVI

Видео

1-я серия - 640x480 (1.33:1), 25 fps, XviD MPEG-4 ~1801 kbps avg, 0.23 bit/pixel
2-я серия - 640x480 (1.33:1), 25 fps, XviD MPEG-4 ~1753 kbps avg, 0.23 bit/pixel
Аудио:..44.100 kHz, MPEG Layer 3, 2 ch, ~128.00 kbps avg

Отчет Media Info

1-я серия:
General
Complete name : Dvojnik.(2.serii).1989.XviD.WEB-DLRip.fenixclub\Dvojnik.1989_1-ya.seria.avi
Format : AVI
Format/Info : Audio Video Interleave
File size : 746 MiB
Duration : 53mn 47s
Overall bit rate : 1 939 Kbps
Writing application : VirtualDubMod 1.5.10.2 (build 2542/release)
Writing library : VirtualDubMod build 2542/release
Video
ID : 0
Format : MPEG-4 Visual
Format profile : Advanced Simple@L5
Format settings, BVOP : 2
Format settings, QPel : No
Format settings, GMC : No warppoints
Format settings, Matrix : Default (MPEG)
Codec ID : XVID
Codec ID/Hint : XviD
Duration : 53mn 47s
Bit rate : 1 801 Kbps
Width : 640 pixels
Height : 480 pixels
Display aspect ratio : 5:4
Original display aspect rat : 4:3
Frame rate : 25.000 fps
Color space : YUV
Chroma subsampling : 4:2:0
Bit depth : 8 bits
Scan type : Progressive
Compression mode : Lossy
Bits/(Pixel*Frame) : 0.235
Stream size : 693 MiB (93%)
Writing library : XviD 73
Audio
ID : 1
Format : MPEG Audio
Format version : Version 1
Format profile : Layer 3
Mode : Joint stereo
Mode extension : MS Stereo
Codec ID : 55
Codec ID/Hint : MP3
Duration : 53mn 47s
Bit rate mode : Constant
Bit rate : 128 Kbps
Channel(s) : 2 channels
Sampling rate : 44.1 KHz
Compression mode : Lossy
Stream size : 49.1 MiB (7%)
Alignment : Split accross interleaves
Interleave, duration : 40 ms (0.99 video frame)
Interleave, preload duratio : 501 ms
General
Complete name : Dvojnik.(2.serii).1989.XviD.WEB-DLRip.fenixclub\Dvojnik.1989_2-ya.seria.avi
Format : AVI
Format/Info : Audio Video Interleave
File size : 686 MiB
Duration : 50mn 42s
Overall bit rate : 1 891 Kbps
Writing application : VirtualDubMod 1.5.10.2 (build 2542/release)
Writing library : VirtualDubMod build 2542/release
Video
ID : 0
Format : MPEG-4 Visual
Format profile : Advanced Simple@L5
Format settings, BVOP : 2
Format settings, QPel : No
Format settings, GMC : No warppoints
Format settings, Matrix : Default (MPEG)
Codec ID : XVID
Codec ID/Hint : XviD
Duration : 50mn 42s
Bit rate : 1 753 Kbps
Width : 640 pixels
Height : 480 pixels
Display aspect ratio : 5:4
Original display aspect rat : 4:3
Frame rate : 25.000 fps
Color space : YUV
Chroma subsampling : 4:2:0
Bit depth : 8 bits
Scan type : Progressive
Compression mode : Lossy
Bits/(Pixel*Frame) : 0.228
Stream size : 636 MiB (93%)
Writing library : XviD 73
Audio
ID : 1
Format : MPEG Audio
Format version : Version 1
Format profile : Layer 3
Mode : Joint stereo
Mode extension : MS Stereo
Codec ID : 55
Codec ID/Hint : MP3
Duration : 50mn 42s
Bit rate mode : Constant
Bit rate : 128 Kbps
Channel(s) : 2 channels
Sampling rate : 44.1 KHz
Compression mode : Lossy
Stream size : 46.3 MiB (7%)
Alignment : Split accross interleaves
Interleave, duration : 40 ms (0.99 video frame)
Interleave, preload duratio : 501 ms

Скриншоты


Альтернативный хост





Показать сообщения:    

Текущее время: 18-Янв 00:22

Часовой пояс: UTC + 3


Вы не можете начинать темы
Вы не можете отвечать на сообщения
Вы не можете редактировать свои сообщения
Вы не можете удалять свои сообщения
Вы не можете голосовать в опросах
Вы не можете прикреплять файлы к сообщениям
Вы не можете скачивать файлы