Второе пробуждение Кристы Клагес / Das zweite Erwachen der Christa Klages (Маргарете фон Тротта / Margarethe von Trotta) [1978, Германия, драма, DVDRip] + Sub Rus / Eng + Original Ger


Статистика раздачи [Обновить пиров]
Размер:  1.03 GB   |    Зарегистрирован:  1 год   |    Скачан:  0 раз

Полного источника не было: Никогда

 
   
 
 
 

[Цитировать]

Второе пробуждение Кристы Клагес / Das zweite Erwachen der Christa Klages
Страна: Германия
Жанр: драма
Год выпуска: 1978
Продолжительность: 01:28:09
Перевод: Субтитры
Cубтитры: русские, английские
Оригинальная аудиодорожка: немецкий
Режиссер: Маргарете фон Тротта / Margarethe von Trotta
В ролях: Тина Энгель, Сильвия Райце, Катарина Тальбах, Мариус Мюллер-Вестернхаген, Питер Шнайдер, Ульрих фон Добшютц, Эрика Вакернагель, Фридрих Кайзер, Ахим Крауш, Фриц Лей
Описание: Оказавшись заложницей Кристы Клагес во время ограбления банка, Лена начинает собственное расследование, идет по следу преступницы, почти настигает ее. Но, чем ближе она знакомилась с жизнью той, что казалась ей поначалу заурядной преступницей, тем сильнее рос в ней протест против действительности, против несоразмерности богатства одних и вопиющей бедности других.
Доп. информация: Видеофайл найден в сети. Перевод выполнен мной по английским субтитрам.
Сэмпл: http://multi-up.com/1077881
Качество видео: DVDRip
Формат видео: MKV
Видео: 640x360 (16:9), 25.000 fps, AVC, 1500 Kbps avg, 0.260 bit/pixel
Аудио: AC3, 48 kHz, 160 Kbps, 2/0 (L,R) ch
Формат субтитров: softsub (SRT)

MediaInfo

General
Unique ID : 133269155789099168802708820732387643516 (0x6442B4ADFB33ECBB91037AA2E6ADD07C)
Complete name : Das.zweite.Erwachen.der.Christa.Klages.DVDRip.Ger.Sub.Eng.Rus.mkv
Format : Matroska
Format version : Version 4 / Version 2
File size : 1.03 GiB
Duration : 1h 29mn
Overall bit rate : 1 662 Kbps
Encoded date : UTC 2015-12-04 08:53:54
Writing application : mkvmerge v8.3.0 ('Over the Horizon') 64bit
Writing library : libebml v1.3.1 + libmatroska v1.4.2
DURATION : 01:28:09.590000000
NUMBER_OF_FRAMES : 828
NUMBER_OF_BYTES : 50683
_STATISTICS_WRITING_APP : mkvmerge v8.3.0 ('Over the Horizon') 64bit
_STATISTICS_WRITING_DATE_UTC : 2015-12-04 08:53:54
_STATISTICS_TAGS : BPS DURATION NUMBER_OF_FRAMES NUMBER_OF_BYTES
Video
ID : 1
Format : AVC
Format/Info : Advanced Video Codec
Format profile : Main@L4
Format settings, CABAC : Yes
Format settings, ReFrames : 4 frames
Codec ID : V_MPEG4/ISO/AVC
Duration : 1h 29mn
Bit rate : 1 500 Kbps
Width : 640 pixels
Height : 360 pixels
Display aspect ratio : 16:9
Frame rate mode : Constant
Frame rate : 25.000 fps
Color space : YUV
Chroma subsampling : 4:2:0
Bit depth : 8 bits
Scan type : Progressive
Bits/(Pixel*Frame) : 0.260
Stream size : 935 MiB (88%)
Writing library : x264 core 128
Encoding settings : cabac=1 / ref=1 / deblock=1:0:0 / analyse=0x1:0x111 / me=hex / subme=2 / psy=1 / psy_rd=1.00:0.00 / mixed_ref=0 / me_range=16 / chroma_me=1 / trellis=0 / 8x8dct=0 / cqm=0 / deadzone=21,11 / fast_pskip=1 / chroma_qp_offset=0 / threads=6 / lookahead_threads=1 / sliced_threads=0 / nr=0 / decimate=1 / interlaced=0 / bluray_compat=0 / constrained_intra=0 / bframes=3 / b_pyramid=2 / b_adapt=1 / b_bias=0 / direct=1 / weightb=1 / open_gop=0 / weightp=1 / keyint=250 / keyint_min=25 / scenecut=40 / intra_refresh=0 / rc_lookahead=10 / rc=2pass / mbtree=1 / bitrate=1500 / ratetol=1.0 / qcomp=0.60 / qpmin=4 / qpmax=69 / qpstep=4 / cplxblur=20.0 / qblur=0.5 / vbv_maxrate=20000 / vbv_bufsize=25000 / nal_hrd=none / ip_ratio=1.40 / aq=1:1.00
Language : English
Default : Yes
Forced : No
Color range : Limited
Color primaries : BT.601 PAL
Transfer characteristics : BT.709
Matrix coefficients : BT.601
Audio
ID : 2
Format : AC-3
Format/Info : Audio Coding 3
Mode extension : CM (complete main)
Format settings, Endianness : Big
Codec ID : A_AC3
Duration : 1h 29mn
Bit rate mode : Constant
Bit rate : 160 Kbps
Channel(s) : 2 channels
Channel positions : Front: L R
Sampling rate : 48.0 KHz
Compression mode : Lossy
Stream size : 102 MiB (10%)
Language : German
Default : Yes
Forced : No
Text #1
ID : 3
Format : UTF-8
Codec ID : S_TEXT/UTF8
Codec ID/Info : UTF-8 Plain Text
Title : English
Language : English
Default : Yes
Forced : No
Text #2
ID : 4
Format : UTF-8
Codec ID : S_TEXT/UTF8
Codec ID/Info : UTF-8 Plain Text
Title : Russian
Language : Russian
Default : No
Forced : No
Menu
00:00:00.000 : en:Chapter 1
00:07:49.000 : en:Chapter 2
00:15:21.200 : en:Chapter 3
00:23:05.280 : en:Chapter 4
00:30:33.400 : en:Chapter 5
00:37:26.000 : en:Chapter 6
00:45:24.320 : en:Chapter 7
00:53:03.160 : en:Chapter 8
00:59:57.360 : en:Chapter 9
01:06:32.320 : en:Chapter 10
01:13:29.400 : en:Chapter 11
01:21:29.080 : en:Chapter 12

Скриншот c названием фильма

Скриншоты

Фрагмент субтитров

1
00:00:01,595 --> 00:00:06,604
ВТОРОЕ ПРОБУЖДЕНИЕ
КРИСТЫ КЛАГЕС
2
00:01:35,029 --> 00:01:38,829
Режиссер
МАРГАРЕТЕ ФОН ТРОТТА
3
00:01:39,241 --> 00:01:45,041
Перевод и субтитры
deutschmark для rutracker.org
4
00:01:54,226 --> 00:01:56,025
Мне следовало создать
свою собственную тюрьму
5
00:01:56,145 --> 00:01:59,294
прежде чем я поняла
что со мной произошло.
6
00:02:39,152 --> 00:02:41,372
Я никогда не думала столь
много о себе...
7
00:02:42,031 --> 00:02:44,401
Особенно не в
последние несколько дней.
8
00:03:19,641 --> 00:03:21,080
Дай мне десятку.
9
00:03:27,318 --> 00:03:28,428
Это все.
10
00:03:28,908 --> 00:03:31,547
- Куда вы едете?
- Не будь невежливой.
11
00:03:33,136 --> 00:03:35,085
Я еду повидаться с другом.
12
00:03:35,205 --> 00:03:36,975
Она ужасно любознательна.
13
00:03:37,305 --> 00:03:40,184
- Он твой друг?
- Да, он тоже мой друг.
14
00:03:40,814 --> 00:03:42,674
Прекрати донимать милую даму.
15
00:03:42,853 --> 00:03:45,402
Знаете, какие самые дорогие
машины в мире?
16
00:03:45,612 --> 00:03:48,641
Rolls Royce Silver Shadow -
123, 987.
17
00:03:49,811 --> 00:03:53,950
Rolls Royce Corniche
Convertible - 177, 522.
18
00:03:54,730 --> 00:03:58,209
Stutz Blackhawk -
150, 880.
19
00:03:58,428 --> 00:04:01,887
Lincoln Continental Mark III -
2 миллиона.
20
00:04:02,067 --> 00:04:03,077
2 миллиона?
21
00:04:03,567 --> 00:04:06,476
Да, сделанный специально
для президента США.
[teatrix.ru].t10921.torrent 
Торрент: Зарегистрирован [ 2015-12-05 03:40 ] · DC3A3F29AF69CC38E57CCB8BC23DCCC26F3C10AA

Скачать .torrent

Скачать

21 KB

Статус: проверено
Скачан: 0 раз
Размер: 1.03 GB
terms.php



Быстрый ответ

Имя:

      
Для отправки сообщений необходимо включить JavaScript
Показать сообщения:    

Текущее время: 05-Дек 15:33

Часовой пояс: UTC + 3


Вы можете начинать темы
Вы можете отвечать на сообщения
Вы не можете редактировать свои сообщения
Вы не можете удалять свои сообщения
Вы не можете голосовать в опросах
Вы не можете прикреплять файлы к сообщениям
Вы можете скачивать файлы