Gilbert and Sullivan - The Mikado / Микадо (Fergus Macleod) [2015, Оперетта, HDTVRip]


 

[Цитировать]

The Mikado / Микадо
Год выпуска: 2015
Лейбл: ENO English National Opera
Страна-производитель: UK
Жанр: Оперетта
Продолжительность: 01:16:30 + 01:08:10
Язык: английский
Перевод: нет
Субтитры: английские
Режиссер/Дирижер: Jonathan Miller/Fergus Macleod
Исполнители:
Ko-Ko Richard Suart
Nanki-Poo Anthony Gregory
Yum-Yum Mary Bevan
Pooh-Bah Graeme Danby
Katisha Yvonne Howard
The Mikado of Japan Robert Lloyd
Pish-Tush George Humphreys
Peep-Bo Fiona Canfield
Pitti-Sing Rachael Lloyd
Описание: https://ru.wikipedia.org/wiki/Микадо_(опера)
Офф сайт: https://www.eno.org/whats-on/15-16/the-mikado
Качество видео: HDTVRip
Формат/Контейнер: MKV
Видео кодек: MPEG2
Аудио кодек: AC3
Видео поток: MPEG Video Version 2, Main@High, 16,1 Мбит/сек, 1920x1080, 16:9, 25 кадров/сек
Аудио поток: English, AC-3 (Audio Coding 3), 48,0 КГц, 448 Кбит/сек, 6 каналов

Скриншоты




MediaInfo

Общее
Уникальный идентификатор : 248733316103121979303063816742099865157 (0xBB204B4E654E4D29BCFA686E11D1CE45)
Полное имя : C:\E\Feeds\Mikado\Mikado\Mikado.p1.mkv
Формат : Matroska
Версия формата : Version 4 / Version 2
Размер файла : 8,93 Гбайт
Продолжительность : 1 ч. 16 м.
Режим общего битрейта : Переменный
Общий поток : 16,7 Мбит/сек
Название фильма : release by @mrita
Дата кодирования : UTC 2015-12-04 02:04:47
Программа кодирования : mkvmerge v8.5.0 ('Vanishing Act') 64bit
Библиотека кодирования : libebml v1.3.1 + libmatroska v1.4.2
DURATION : 01:08:00.880000000
NUMBER_OF_FRAMES : 635
NUMBER_OF_BYTES : 30828
_STATISTICS_WRITING_APP : mkvmerge v8.5.0 ('Vanishing Act') 64bit
_STATISTICS_WRITING_DATE_UTC : 2015-12-04 02:04:47
_STATISTICS_TAGS : BPS DURATION NUMBER_OF_FRAMES NUMBER_OF_BYTES
Видео
Идентификатор : 1
Формат : MPEG Video
Версия формата : Version 2
Профиль формата : Main@High
Параметр BVOP формата : Нет
Параметр матрицы формата : По умолчанию
Идентификатор кодека : V_MPEG2
Идентификатор кодека/Информация : MPEG 1 or 2 Video
Продолжительность : 1 ч. 16 м.
Вид битрейта : Переменный
Битрейт : 16,1 Мбит/сек
Ширина : 1920 пикселей
Высота : 1080 пикселей
Соотношение сторон : 16:9
Режим частоты кадров : Постоянный
Частота кадров : 25,000 кадров/сек
Цветовое пространство : YUV
Субдискретизация насыщенности : 4:2:0
Битовая глубина : 8 бит
Тип развёртки : Чересстрочная
Порядок развёртки : Верхнее поле первое
Метод сжатия : С потерями
Бит/(Пиксели*Кадры) : 0.310
Временной код первого кадра : 00:00:00:00
Оригинал временного кода : Group of pictures header
Размер потока : 8,52 Гбайт (95%)
Библиотека кодирования : (dvd5: Dec 5 2013)
Default : Да
Forced : Нет
Аудио
Идентификатор : 2
Формат : AC-3
Формат/Информация : Audio Coding 3
Расширение режима : CM (complete main)
Параметр Endianness формата : Big
Идентификатор кодека : A_AC3
Продолжительность : 1 ч. 16 м.
Вид битрейта : Постоянный
Битрейт : 448 Кбит/сек
Каналы : 6 каналов
Расположение каналов : Front: L C R, Side: L R, LFE
Частота : 48,0 КГц
Битовая глубина : 16 бит
Метод сжатия : С потерями
Задержка видео : -40 мс.
Размер потока : 245 Мбайт (3%)
Default : Да
Forced : Нет
Текст
Идентификатор : 3
Формат : UTF-8
Идентификатор кодека : S_TEXT/UTF8
Идентификатор кодека/Информация : UTF-8 Plain Text
Язык : English
Default : Да
Forced : Нет
Общее
Уникальный идентификатор : 184532365053510063563701413754406295628 (0x8AD3A4089E755F358C99062AD841D84C)
Полное имя : C:\E\Feeds\Mikado\Mikado\Mikado.p2.mkv
Формат : Matroska
Версия формата : Version 4 / Version 2
Размер файла : 7,79 Гбайт
Продолжительность : 1 ч. 8 м.
Режим общего битрейта : Переменный
Общий поток : 16,4 Мбит/сек
Название фильма : release by @mrita
Дата кодирования : UTC 2015-12-04 02:15:16
Программа кодирования : mkvmerge v8.5.0 ('Vanishing Act') 64bit
Библиотека кодирования : libebml v1.3.1 + libmatroska v1.4.2
DURATION : 01:00:08.780000000
NUMBER_OF_FRAMES : 665
NUMBER_OF_BYTES : 28649
_STATISTICS_WRITING_APP : mkvmerge v8.5.0 ('Vanishing Act') 64bit
_STATISTICS_WRITING_DATE_UTC : 2015-12-04 02:15:16
_STATISTICS_TAGS : BPS DURATION NUMBER_OF_FRAMES NUMBER_OF_BYTES
Видео
Идентификатор : 1
Формат : MPEG Video
Версия формата : Version 2
Профиль формата : Main@High
Параметр BVOP формата : Нет
Параметр матрицы формата : По умолчанию
Идентификатор кодека : V_MPEG2
Идентификатор кодека/Информация : MPEG 1 or 2 Video
Продолжительность : 1 ч. 8 м.
Вид битрейта : Переменный
Битрейт : 15,6 Мбит/сек
Максимальный битрейт : 15,8 Мбит/сек
Ширина : 1920 пикселей
Высота : 1080 пикселей
Соотношение сторон : 16:9
Режим частоты кадров : Постоянный
Частота кадров : 25,000 кадров/сек
Цветовое пространство : YUV
Субдискретизация насыщенности : 4:2:0
Битовая глубина : 8 бит
Тип развёртки : Чересстрочная
Порядок развёртки : Верхнее поле первое
Метод сжатия : С потерями
Бит/(Пиксели*Кадры) : 0.301
Временной код первого кадра : 00:00:00:00
Оригинал временного кода : Group of pictures header
Размер потока : 7,42 Гбайт (95%)
Библиотека кодирования : (dvd5: Dec 5 2013)
Default : Да
Forced : Нет
Аудио
Идентификатор : 2
Формат : AC-3
Формат/Информация : Audio Coding 3
Расширение режима : CM (complete main)
Параметр Endianness формата : Big
Идентификатор кодека : A_AC3
Продолжительность : 1 ч. 8 м.
Вид битрейта : Постоянный
Битрейт : 448 Кбит/сек
Каналы : 6 каналов
Расположение каналов : Front: L C R, Side: L R, LFE
Частота : 48,0 КГц
Битовая глубина : 16 бит
Метод сжатия : С потерями
Размер потока : 218 Мбайт (3%)
Default : Да
Forced : Нет
Текст
Идентификатор : 3
Формат : UTF-8
Идентификатор кодека : S_TEXT/UTF8
Идентификатор кодека/Информация : UTF-8 Plain Text
Язык : English
Default : Да
Forced : Нет



Показать сообщения:    

Текущее время: 04-Дек 19:13

Часовой пояс: UTC + 3


Вы не можете начинать темы
Вы не можете отвечать на сообщения
Вы не можете редактировать свои сообщения
Вы не можете удалять свои сообщения
Вы не можете голосовать в опросах
Вы не можете прикреплять файлы к сообщениям
Вы не можете скачивать файлы