Алла Демидова. Ахматова. Цветаева [2015 г., Литературные чтения, WEB-DLRip] Московская государственная академическая филармония


 

[Цитировать]

Алла Демидова. Ахматова. Цветаева Московская государственная филармония.
Концертный зал имени П. И. Чайковского.

Год выпуска: 2015.
Жанр: Литературные чтения.
Продолжительность: 01:46:22.
Исполнительница: народная артистка РСФСР Алла Демидова.
Описание:
"Одна из самых значительных и стильных современных русских актрис".
Тяга к трагедийности наделила Аллу Демидову и неповторимой манерой поэтического чтения – она читает русскую поэзию, следуя, подобно поэтам, за музыкой стихов, и одновременно передавая трагизм судеб их создателей. Находясь уже более 10 лет в «свободном плавании» (исключение – сотрудничество с театром «Школа драматического искусства», где она сыграла Донну Анну в спектакле А. Васильева «Дон Жуан или «Каменный гость» и другие стихи»), Демидова по-прежнему остается звездой, окруженной – из-за жесткой избирательности в ролях и замкнутой личной жизни – ореолом таинственности. Следуя древним комедиантским традициям, она ездит по разным уголкам мира со спектаклями, поэтическими вечерами и мастер-классами. В Москве выступает лишь изредка. Наделенная литературным талантом актриса написала семь книг, размышляя о природе искусства и вспоминая современников.

Дополнительная информация:
Страна: Россия .
Авторы: Анна Ахматова, Марина Цветаева.
Запись из концертного зала имени Чайковского.
Академический симфонический оркестр Московской филармонии.

Абонемент №54:
Звучащее слово.

Релиз
Рип lesik689.

Качество видео:...WEB-DLRip
Формат:.................AVI
Видео:..720x400 (1.80:1), 25 fps, XviD MPEG-4 ~1184 kbps avg, 0.16 bit/pixel
Аудио:..44.100 kHz, MPEG Layer 3, 2 ch, ~192.00 kbps avg

Отчет Media Info

General
Complete name : Alla.Demidova.Ahmatova.Tsvetaeva_KZChajkovskogo.2015.XviD.WEB-DLRip.fenixclub.avi
Format : AVI
Format/Info : Audio Video Interleave
File size : 1.03 GiB
Duration : 1h 46mn
Overall bit rate : 1 386 Kbps
Writing application : VirtualDubMod 1.5.10.2 (build 2542/release)
Writing library : VirtualDubMod build 2542/release
Video
ID : 0
Format : MPEG-4 Visual
Format profile : Advanced Simple@L5
Format settings, BVOP : 2
Format settings, QPel : No
Format settings, GMC : No warppoints
Format settings, Matrix : Default (MPEG)
Codec ID : XVID
Codec ID/Hint : XviD
Duration : 1h 46mn
Bit rate : 1 184 Kbps
Width : 720 pixels
Height : 400 pixels
Display aspect ratio : 16:9
Original display aspect rat : 16:9
Frame rate : 25.000 fps
Color space : YUV
Chroma subsampling : 4:2:0
Bit depth : 8 bits
Scan type : Progressive
Compression mode : Lossy
Bits/(Pixel*Frame) : 0.164
Stream size : 901 MiB (85%)
Writing library : XviD 73
Audio
ID : 1
Format : MPEG Audio
Format version : Version 1
Format profile : Layer 3
Mode : Joint stereo
Codec ID : 55
Codec ID/Hint : MP3
Duration : 1h 46mn
Bit rate mode : Constant
Bit rate : 192 Kbps
Channel(s) : 2 channels
Sampling rate : 44.1 KHz
Compression mode : Lossy
Stream size : 146 MiB (14%)
Alignment : Split accross interleaves
Interleave, duration : 40 ms (1.00 video frame)
Interleave, preload duratio : 500 ms.

Скриншоты

Альтернативный хост




Показать сообщения:    

Текущее время: 08-Дек 07:04

Часовой пояс: UTC + 3


Вы не можете начинать темы
Вы не можете отвечать на сообщения
Вы не можете редактировать свои сообщения
Вы не можете удалять свои сообщения
Вы не можете голосовать в опросах
Вы не можете прикреплять файлы к сообщениям
Вы не можете скачивать файлы